<?xml version="1.0" standalone="no"?>
<!DOCTYPE svg PUBLIC "-//W3C//DTD SVG 1.1//EN" "http://www.w3.org/Graphics/SVG/1.1/DTD/svg11.dtd" >
<svg xmlns="http://www.w3.org/2000/svg" xmlns:xlink="http://www.w3.org/1999/xlink" version="1.1">
<metadata>
Created by FontForge 20201107 at Fri Sep 10 18:37:55 2021
 By 
Copyright 2020 The Jost Project Authors (https://github.com/indestructible-type/Jost)
</metadata>
<defs>
<font id="Jost-Bold" horiz-adv-x="575" >
  <font-face 
    font-family="Jost"
    font-weight="700"
    font-stretch="normal"
    units-per-em="1000"
    panose-1="0 0 0 0 0 0 0 0 0 0"
    ascent="800"
    descent="-200"
    x-height="460"
    cap-height="700"
    bbox="-164 -365 1805 1051"
    underline-thickness="50"
    underline-position="-125"
    unicode-range="U+000D-FF19"
  />
<missing-glyph horiz-adv-x="500" 
 />
    <glyph glyph-name=".notdef" horiz-adv-x="500" 
 />
    <glyph glyph-name="uni0000" horiz-adv-x="300" 
 />
    <glyph glyph-name="uni0000" horiz-adv-x="300" 
 />
    <glyph glyph-name="uni000D" unicode="&#xd;" horiz-adv-x="300" 
 />
    <glyph glyph-name="space" unicode=" " horiz-adv-x="300" 
 />
    <glyph glyph-name="exclam" unicode="!" horiz-adv-x="343" 
d="M78 700l33 -469h122l32 469h-187zM78 62q0 -38 26.5 -62t67.5 -24t67.5 24t26.5 62t-26.5 62t-67.5 24t-67.5 -24t-26.5 -62z" />
    <glyph glyph-name="quotedbl" unicode="&#x22;" horiz-adv-x="518" 
d="M105 700l-44 -319h99l105 319h-160zM316 700l-44 -319h99l105 319h-160z" />
    <glyph glyph-name="numbersign" unicode="#" horiz-adv-x="667" 
d="M75 412h142l27 6h204l29 -6h155v121h-557v-121zM35 172h557v121h-124l-30 -6h-230l-32 6h-141v-121zM474 700l-52 -213l-1 -31l-51 -206l-12 -26l-54 -224h131l170 700h-131zM233 700l-170 -700h130l55 226v25l50 205l14 32l51 212h-130z" />
    <glyph glyph-name="dollar" unicode="$" horiz-adv-x="622" 
d="M262 818l6 -181h112l6 181h-124zM268 62l-6 -174h123l-6 174h-111zM449 489l127 73q-21 38 -53 72t-81 55t-121 21q-73 0 -128.5 -26t-87 -69t-31.5 -94t19.5 -87.5t49 -62.5t62 -42.5t58.5 -25.5q41 -16 73.5 -30t52 -32.5t19.5 -46.5q0 -22 -9.5 -38t-28 -23.5
t-48.5 -7.5q-36 0 -65.5 14t-54.5 42t-50 70l-119 -84q22 -48 65 -88t99.5 -64.5t119.5 -24.5q83 0 143 24t93 70.5t33 111.5q0 46 -14.5 80.5t-39.5 60.5t-57 44.5t-68 31.5q-42 16 -78.5 29.5t-59 31.5t-22.5 48q0 18 8.5 32t26 23t44.5 9t49 -12t40.5 -34t33.5 -51z" />
    <glyph glyph-name="percent" unicode="%" horiz-adv-x="919" 
d="M23 534q0 -50 24.5 -92.5t67.5 -67t97 -24.5t96.5 24.5t67.5 67t25 92.5q0 52 -25 93.5t-67.5 66.5t-96.5 25t-97 -25t-67.5 -66.5t-24.5 -93.5zM147 535q0 18 8.5 33t23 24t32.5 9q20 0 34.5 -9t22.5 -24t8 -34q0 -17 -8 -32.5t-22.5 -24.5t-34.5 -9q-18 0 -32.5 9
t-23 24.5t-8.5 33.5zM518 166q0 -51 25 -93t68 -67t96 -25q54 0 97 25t67.5 67t24.5 93t-24.5 93t-67.5 67t-97 25q-53 0 -96 -25t-68 -67t-25 -93zM643 166q0 19 8 34t22.5 24t33.5 9t33.5 -9t23 -24.5t8.5 -33.5q0 -17 -8.5 -32.5t-23 -24.5t-33.5 -9t-33.5 9t-22.5 24.5
t-8 32.5zM650 700l-537 -700h156l537 700h-156z" />
    <glyph glyph-name="ampersand" unicode="&#x26;" horiz-adv-x="752" 
d="M223 372l339 -372h173l-370 400q-40 44 -66.5 74.5t-26.5 59.5q0 24 17 43.5t51 19.5q21 0 35.5 -9.5t22.5 -23.5t8 -30q0 -27 -29.5 -57t-85.5 -57q-21 -10 -52.5 -22t-66 -28.5t-64.5 -41t-49 -59t-19 -82.5q0 -62 33 -107t88.5 -69t122.5 -24q73 0 136.5 25
t116.5 65.5t96 89.5t76 96l-101 78q-31 -47 -65.5 -88t-73.5 -72t-80.5 -49t-84.5 -18q-34 0 -57.5 11.5t-36 31.5t-12.5 44q0 31 17 50.5t43 34t56.5 28t56.5 30.5q42 28 74 50.5t54 45t33 48t11 60.5q0 42 -23 80.5t-68 63.5t-111 25t-114.5 -25t-74.5 -65t-26 -83
q0 -36 14.5 -65t37 -55.5t45.5 -51.5z" />
    <glyph glyph-name="quotesingle" unicode="'" horiz-adv-x="307" 
d="M105 700l-44 -319h99l105 319h-160z" />
    <glyph glyph-name="parenleft" unicode="(" horiz-adv-x="341" 
d="M189 780q-60 -112 -90.5 -237t-30.5 -253q0 -127 30.5 -252t90.5 -238h138q-52 113 -81 238t-29 252q0 128 29 253t81 237h-138z" />
    <glyph glyph-name="parenright" unicode=")" horiz-adv-x="341" 
d="M152 -200q60 113 90.5 238t30.5 252q0 128 -30.5 253t-90.5 237h-138q53 -112 81.5 -237t28.5 -253q0 -127 -28.5 -252t-81.5 -238h138z" />
    <glyph glyph-name="asterisk" unicode="*" horiz-adv-x="592" 
d="M498 603l-214 -103l24 -71l233 43zM491 315l-165 171l-60 -43l112 -209zM214 234l112 209l-60 43l-165 -171zM51 472l233 -43l24 71l-214 103zM227 700l32 -235h74l32 235h-138z" />
    <glyph glyph-name="plus" unicode="+" horiz-adv-x="674" 
d="M65 196h544v146h-544v-146zM259 540v-542h156v542h-156z" />
    <glyph glyph-name="comma" unicode="," horiz-adv-x="324" 
d="M120 110l-88 -259l114 -23l125 250z" />
    <glyph glyph-name="hyphen" unicode="-" horiz-adv-x="222" 
d="M5 172h212v131h-212v-131z" />
    <glyph glyph-name="period" unicode="." horiz-adv-x="322" 
d="M67 68q0 -38 27 -65t67 -27q42 0 68 27t26 65t-26 65t-68 27q-40 0 -67 -27t-27 -65z" />
    <glyph glyph-name="slash" unicode="/" horiz-adv-x="608" 
d="M448 700l-433 -850h151l427 850h-145z" />
    <glyph glyph-name="zero" unicode="0" horiz-adv-x="662" 
d="M203 350q0 49 9 89.5t26 69t40.5 44t52.5 15.5t52.5 -15.5t40.5 -44t26 -69t9 -89.5t-9 -89.5t-26 -69t-40.5 -44t-52.5 -15.5t-52.5 15.5t-40.5 44t-26 69t-9 89.5zM40 350q0 -114 36.5 -195t102.5 -124.5t152 -43.5q89 0 154.5 43.5t101 124.5t35.5 195t-35.5 195
t-101 124.5t-154.5 43.5q-86 0 -152 -43.5t-102.5 -124.5t-36.5 -195z" />
    <glyph glyph-name="one" unicode="1" horiz-adv-x="509" 
d="M68 498l173 43v-541h163v713l-336 -68v-147z" />
    <glyph glyph-name="two" unicode="2" horiz-adv-x="656" 
d="M20 0h593v155h-280l163 146q45 39 73 86.5t28 104.5q0 40 -17 79t-50.5 71.5t-83.5 52t-115 19.5q-90 0 -152.5 -37t-93.5 -99t-31 -137h166q0 38 12.5 67t37 45t56.5 16q24 0 42 -7.5t30 -20t18 -28.5t6 -32q0 -28 -10.5 -52.5t-31 -49.5t-48.5 -56z" />
    <glyph glyph-name="three" unicode="3" horiz-adv-x="621" 
d="M275 339q83 0 150 20t106.5 60t39.5 100q0 54 -28.5 98t-83.5 70t-134 26q-74 0 -130 -28.5t-86.5 -78t-30.5 -111.5h155q0 37 26 60t66 23q27 0 44 -8.5t26 -24.5t9 -36q0 -19 -9 -36t-26.5 -30t-41 -20.5t-52.5 -7.5v-76zM317 -16q86 0 147 26.5t94 73t33 107.5
q0 53 -23 91t-66 62.5t-100.5 36t-126.5 11.5v-86q38 0 66 -7t46.5 -20.5t27.5 -31.5t9 -40q0 -29 -13 -49t-35.5 -29t-52.5 -9q-28 0 -53.5 11t-40.5 34t-15 57h-166q0 -46 18.5 -89t53 -77t84.5 -53t113 -19z" />
    <glyph glyph-name="four" unicode="4" horiz-adv-x="698" 
d="M14 124h642v144h-143l-17 -22h-258l151 209v-268l-19 -11v-176h176v700h-126z" />
    <glyph glyph-name="five" unicode="5" horiz-adv-x="645" 
d="M605 224q0 73 -30 124t-78.5 78t-104.5 27q-33 0 -63.5 -5.5t-58.5 -18.5l40 125h280v146h-404l-98 -404q36 18 70.5 27.5t67 13t59.5 3.5q35 0 65.5 -10t50 -31.5t19.5 -56.5q0 -33 -16 -56t-46 -34t-73 -11q-25 0 -56 9.5t-61.5 26t-59.5 40.5l-66 -139q33 -24 73 -45
t91.5 -33.5t115.5 -12.5q51 0 101 13.5t91.5 42.5t66 74t24.5 107z" />
    <glyph glyph-name="six" unicode="6" horiz-adv-x="669" 
d="M217 246q0 35 15.5 62t42 42t60.5 15q33 0 59.5 -15t42 -42t15.5 -62q0 -36 -15.5 -62.5t-42 -41t-59.5 -14.5q-34 0 -60.5 14.5t-42 41t-15.5 62.5zM333 697l-202 -257q-34 -42 -57.5 -90t-23.5 -104q0 -86 38.5 -144.5t103 -88t143.5 -29.5q78 0 142.5 29.5t103 88
t38.5 144.5q0 53 -18.5 95t-50 71.5t-70 45t-77.5 15.5q-38 0 -63.5 -8t-53.5 -36l35 15l226 253h-214z" />
    <glyph glyph-name="seven" unicode="7" horiz-adv-x="603" 
d="M30 542h323l-273 -542h183l338 700h-571v-158z" />
    <glyph glyph-name="eight" unicode="8" horiz-adv-x="627" 
d="M77 531q0 -48 20.5 -83.5t54.5 -59t76 -34.5t85 -11t85 11t76.5 34.5t55 59t20.5 83.5q0 59 -32.5 100.5t-86 63t-118.5 21.5q-64 0 -117.5 -21.5t-86 -63t-32.5 -100.5zM236 515q0 23 9.5 41.5t27.5 28.5t40 10q24 0 41.5 -10t27 -28.5t9.5 -41.5q0 -24 -10 -42
t-27.5 -28t-40.5 -10q-22 0 -39.5 10t-27.5 28t-10 42zM52 190q0 -48 21 -86t58 -65t84 -41t98 -14q52 0 99 14t84 41t58 65t21 86q0 55 -24 94.5t-63.5 64t-85.5 36t-89 11.5t-89 -11.5t-85 -36t-63 -64t-24 -94.5zM220 216q0 25 12.5 46t34 33t46.5 12q26 0 47.5 -12
t34 -33t12.5 -46q0 -31 -12.5 -52t-34 -32t-47.5 -11q-25 0 -46.5 11t-34 32t-12.5 52z" />
    <glyph glyph-name="nine" unicode="9" horiz-adv-x="669" 
d="M452 454q0 -35 -15.5 -62t-42 -42t-59.5 -15q-34 0 -60.5 15t-42 42t-15.5 62q0 36 15.5 62.5t42 41t60.5 14.5q33 0 59.5 -14.5t42 -41t15.5 -62.5zM336 3l202 257q34 42 57.5 90t23.5 104q0 87 -38.5 145t-103 87.5t-142.5 29.5q-79 0 -143.5 -29.5t-103 -87.5
t-38.5 -145q0 -53 19 -95t50 -71.5t69.5 -45t77.5 -15.5q38 0 63.5 8.5t53.5 35.5l-34 -15l-227 -253h214z" />
    <glyph glyph-name="colon" unicode=":" horiz-adv-x="322" 
d="M67 68q0 -38 27 -65t67 -27q42 0 68 27t26 65t-26 65t-68 27q-40 0 -67 -27t-27 -65zM67 442q0 -38 27 -65.5t67 -27.5q42 0 68 27.5t26 65.5t-26 65t-68 27q-40 0 -67 -27t-27 -65z" />
    <glyph glyph-name="semicolon" unicode=";" horiz-adv-x="393" 
d="M119 436q0 -38 26.5 -65.5t67.5 -27.5q42 0 68 27.5t26 65.5q0 37 -26 64.5t-68 27.5q-41 0 -67.5 -27.5t-26.5 -64.5zM142 110l-88 -259l114 -23l125 250z" />
    <glyph glyph-name="less" unicode="&#x3c;" horiz-adv-x="640" 
d="M280 268l295 112v148l-510 -214v-101l510 -214v149z" />
    <glyph glyph-name="equal" unicode="=" horiz-adv-x="626" 
d="M56 84h515v131h-515v-131zM56 290h515v131h-515v-131z" />
    <glyph glyph-name="greater" unicode="&#x3e;" horiz-adv-x="640" 
d="M360 260l-295 -112v-149l510 214v101l-510 214v-148z" />
    <glyph glyph-name="question" unicode="?" horiz-adv-x="627" 
d="M420 500q0 -26 -19 -54t-58 -47.5t-99 -19.5h-32l20 -178h122l4 84q54 9 103 36.5t80.5 72.5t31.5 106q0 52 -21.5 92.5t-57.5 69t-81.5 43t-94.5 14.5q-59 0 -107 -15.5t-88 -44.5t-75 -70l102 -84q28 42 70 64.5t88 22.5q35 0 60.5 -11t38.5 -31.5t13 -49.5zM199 59
q0 -34 27 -58.5t67 -24.5q42 0 68.5 24.5t26.5 58.5q0 33 -26.5 58t-68.5 25q-40 0 -67 -25t-27 -58z" />
    <glyph glyph-name="at" unicode="@" horiz-adv-x="770" 
d="M316 320q0 31 10 56.5t26 40.5t36 15q14 0 24.5 -7.5t16.5 -22.5t6 -38q0 -35 -11.5 -60t-28 -38.5t-34.5 -13.5q-22 0 -33.5 17.5t-11.5 50.5zM196 313q0 -49 16.5 -85t46 -55t69.5 -19q42 0 77 25t56 73.5t21 117.5q0 43 -15.5 79t-43 58.5t-64.5 22.5
q-39 0 -76.5 -25.5t-62 -73.5t-24.5 -118zM19 320q0 -99 39.5 -177t116.5 -123.5t190 -45.5q77 0 133 14.5t101 39.5l-37 90q-43 -21 -87.5 -32.5t-97.5 -11.5q-82 0 -137 30t-82.5 85.5t-27.5 130.5q0 67 20 122t57 95.5t89.5 63t118.5 22.5q56 0 98 -18.5t70.5 -50.5
t42.5 -74t14 -90q0 -60 -12 -92t-28 -44.5t-28 -12.5q-10 0 -16 5t-8 14t-2 21q0 6 0.5 14t1.5 13l26 212h-116l-24 -225l13 -31q-5 -33 9.5 -60t42 -43.5t60.5 -16.5q35 0 69 13.5t62 43t44.5 76t16.5 113.5q0 62 -22.5 121.5t-65.5 107t-105.5 75.5t-142.5 28
q-86 0 -158.5 -30.5t-125.5 -85.5t-82.5 -128.5t-29.5 -157.5z" />
    <glyph glyph-name="A" unicode="A" horiz-adv-x="735" 
d="M184 135h370l-11 129h-347zM367 443l99 -227l-6 -43l84 -173h192l-369 744l-368 -744h191l87 180l-8 37z" />
    <glyph glyph-name="B" unicode="B" horiz-adv-x="664" 
d="M200 348h131q73 0 128.5 20.5t88 59.5t32.5 94q0 60 -32.5 99.5t-88 59t-128.5 19.5h-257v-700h274q83 0 144 20.5t94.5 63.5t33.5 113q0 53 -23.5 90.5t-62.5 62t-87 35.5t-99 11h-148v-92h129q25 0 45.5 -4.5t36.5 -14.5t25 -26t9 -38q0 -34 -15.5 -53.5t-41.5 -28
t-59 -8.5h-86v438h70q43 0 67.5 -18t24.5 -54q0 -24 -11 -40.5t-31.5 -25.5t-49.5 -9h-113v-74z" />
    <glyph glyph-name="C" unicode="C" horiz-adv-x="701" 
d="M218 350q0 65 29 111t76.5 70t104.5 24q50 0 88 -12.5t68 -34t53 -45.5v182q-42 33 -92 52t-127 19q-84 0 -155 -26t-122 -75t-79 -116t-28 -149t28 -149t79 -116t122 -75t155 -26q77 0 127 19t92 52v182q-23 -24 -53 -45t-68 -34t-88 -13q-57 0 -104.5 24t-76.5 70.5
t-29 110.5z" />
    <glyph glyph-name="D" unicode="D" horiz-adv-x="733" 
d="M74 700v-700h174v700h-174zM324 0q115 0 199 43t130 121.5t46 185.5q0 108 -46 186t-130 121t-199 43h-138v-150h132q40 0 77.5 -10t66 -33t45.5 -61.5t17 -95.5t-17 -95.5t-45.5 -61.5t-66 -33t-77.5 -10h-132v-150h138z" />
    <glyph glyph-name="E" unicode="E" horiz-adv-x="603" 
d="M186 0h353v139h-353v-139zM186 561h353v139h-353v-139zM186 300h333v136h-333v-136zM74 700v-700h162v700h-162z" />
    <glyph glyph-name="F" unicode="F" horiz-adv-x="553" 
d="M186 555h313v145h-313v-145zM186 281h303v136h-303v-136zM74 700v-700h162v700h-162z" />
    <glyph glyph-name="G" unicode="G" horiz-adv-x="814" 
d="M421 253h186q-9 -27 -24.5 -50.5t-37.5 -41t-53 -27t-69 -9.5q-62 0 -109.5 27.5t-75 78t-27.5 119.5q0 70 28.5 118.5t76.5 74.5t107 26q61 0 101.5 -27.5t64.5 -69.5l150 78q-33 49 -78.5 86.5t-104.5 58.5t-133 21q-83 0 -154 -26t-124 -74t-82 -115.5t-29 -150.5
t28.5 -151.5t79.5 -118t121 -76t154 -26.5q89 0 158 31.5t115 87.5t68 129t17 157h-354v-130z" />
    <glyph glyph-name="H" unicode="H" horiz-adv-x="786" 
d="M121 293h529v152h-529v-152zM544 700v-700h169v700h-169zM74 700v-700h169v700h-169z" />
    <glyph glyph-name="I" unicode="I" horiz-adv-x="320" 
d="M74 700v-700h172v700h-172z" />
    <glyph glyph-name="J" unicode="J" horiz-adv-x="330" 
d="M-72 -64l-92 -118q21 -14 50 -26.5t65 -21.5t75 -9q46 0 88 10.5t74 32t50 57t18 85.5v754h-182v-716q0 -44 -21 -62.5t-44 -18.5q-22 0 -44 10t-37 23z" />
    <glyph glyph-name="K" unicode="K" horiz-adv-x="699" 
d="M74 700v-700h175v700h-175zM487 700l-287 -333l295 -367h205l-299 372l284 328h-198z" />
    <glyph glyph-name="L" unicode="L" horiz-adv-x="528" 
d="M74 700v-700h450v145h-281v555h-169z" />
    <glyph glyph-name="M" unicode="M" horiz-adv-x="891" 
d="M254 357l191 -292l192 292l42 -357h178l-113 735l-299 -427l-298 427l-113 -735h178z" />
    <glyph glyph-name="N" unicode="N" horiz-adv-x="794" 
d="M557 700v-394l-483 429v-735h162v394l484 -429v735h-163z" />
    <glyph glyph-name="O" unicode="O" horiz-adv-x="821" 
d="M213 350q0 62 24.5 109.5t69 74.5t104.5 27q61 0 105 -27t68 -74.5t24 -109.5t-24.5 -109.5t-69 -74.5t-103.5 -27q-60 0 -104.5 27t-69 74.5t-24.5 109.5zM34 350q0 -81 27.5 -149t78 -118t119.5 -77.5t152 -27.5q82 0 151 27.5t119.5 77.5t78 118t27.5 149t-28 148
t-79 116t-119.5 75.5t-149.5 26.5q-80 0 -149 -26.5t-120 -75.5t-79.5 -116t-28.5 -148z" />
    <glyph glyph-name="P" unicode="P" horiz-adv-x="623" 
d="M74 700v-700h169v700h-169zM180 561h137q51 0 80 -23t29 -67q0 -43 -29 -66t-80 -23h-137v-139h137q89 0 149.5 27.5t91.5 79t31 121.5q0 72 -31 123t-91.5 78.5t-149.5 27.5h-137v-139z" />
    <glyph glyph-name="Q" unicode="Q" horiz-adv-x="863" 
d="M213 350q0 62 25.5 109.5t70.5 74.5t105 27q67 0 114.5 -31.5t73 -83.5t25.5 -115q0 -61 -25.5 -107.5t-70.5 -71.5t-105 -25q-59 0 -107.5 27.5t-77 77.5t-28.5 118zM34 350q0 -81 28 -149t79.5 -118t120.5 -77.5t152 -27.5q82 0 150.5 27.5t118.5 77.5t77 118t27 149
t-27.5 148t-78 116t-118.5 75.5t-149 26.5q-80 0 -149 -26.5t-121 -75.5t-81 -116t-29 -148zM357 300l331 -312h181l-337 312h-175z" />
    <glyph glyph-name="R" unicode="R" horiz-adv-x="647" 
d="M248 317l197 -317h198l-219 317h-176zM74 700v-700h169v700h-169zM180 557h137q34 0 58.5 -11t37.5 -31.5t13 -49.5t-13 -49.5t-37.5 -31t-58.5 -10.5h-137v-131h149q90 0 150 29t91 80.5t31 118.5q0 68 -31 119.5t-91 80.5t-150 29h-149v-143z" />
    <glyph glyph-name="S" unicode="S" horiz-adv-x="625" 
d="M151 246l-118 -85q24 -50 67 -92t101.5 -66.5t126.5 -24.5q49 0 95.5 14.5t83 42.5t58 69.5t21.5 94.5q0 44 -14 78t-38.5 60t-56.5 44.5t-69 32.5q-49 17 -83.5 32t-53 33t-18.5 42q0 23 19 38.5t55 15.5q27 0 50.5 -10.5t43 -29t34.5 -43.5l129 72q-18 36 -52 71
t-85.5 58t-121.5 23q-68 0 -123.5 -23.5t-88 -68.5t-32.5 -107q0 -52 19 -88.5t48 -62t61.5 -41.5t57.5 -25q51 -19 82 -34t45 -31.5t14 -43.5q0 -32 -24 -50.5t-61 -18.5q-35 0 -66.5 15t-58 43t-47.5 66z" />
    <glyph glyph-name="T" unicode="T" horiz-adv-x="561" 
d="M4 549h192v-549h169v549h193v151h-554v-151z" />
    <glyph glyph-name="U" unicode="U" horiz-adv-x="701" 
d="M69 700v-470q0 -66 21.5 -115t60 -80.5t89.5 -47.5t110 -16t110.5 16t90 47.5t60 80.5t21.5 115v470h-169v-458q0 -53 -28 -86t-85 -33q-56 0 -84 33t-28 86v458h-169z" />
    <glyph glyph-name="V" unicode="V" horiz-adv-x="735" 
d="M367 282l-171 418h-197l368 -744l369 744h-198z" />
    <glyph glyph-name="W" unicode="W" horiz-adv-x="1065" 
d="M724 301l-192 434l-190 -434l-138 399h-200l303 -741l225 422l226 -422l303 741h-201z" />
    <glyph glyph-name="X" unicode="X" horiz-adv-x="685" 
d="M458 700l-112 -203l-108 203h-209l215 -341l-240 -359h209l132 233l128 -233h209l-235 359l220 341h-209z" />
    <glyph glyph-name="Y" unicode="Y" horiz-adv-x="660" 
d="M467 700l-137 -263l-137 263h-194l245 -416v-284h172v285l245 415h-194z" />
    <glyph glyph-name="Z" unicode="Z" horiz-adv-x="620" 
d="M57 549h278l-326 -549h561v145h-295l331 555h-549v-151z" />
    <glyph glyph-name="bracketleft" unicode="[" horiz-adv-x="362" 
d="M241 649h101v131h-251v-1000h251v131h-101v738z" />
    <glyph glyph-name="backslash" unicode="\" horiz-adv-x="546" 
d="M15 700l369 -700h147l-369 700h-147z" />
    <glyph glyph-name="bracketright" unicode="]" horiz-adv-x="362" 
d="M121 -89h-101v-131h251v1000h-251v-131h101v-738z" />
    <glyph glyph-name="asciicircum" unicode="^" horiz-adv-x="510" 
d="M255 581l79 -133h136l-170 262h-90l-170 -262h136z" />
    <glyph glyph-name="underscore" unicode="_" horiz-adv-x="531" 
d="M0 -154h531v97h-531v-97z" />
    <glyph glyph-name="grave" unicode="`" horiz-adv-x="375" 
d="M53 654l180 -150l86 42l-150 160z" />
    <glyph glyph-name="a" unicode="a" horiz-adv-x="539" 
d="M176 144q0 17 8 28.5t24 17.5t43 6q35 0 66.5 -9.5t55.5 -27.5v67q-12 13 -36 25t-57.5 20t-75.5 8q-86 0 -133 -38.5t-47 -104.5q0 -47 22.5 -80t60 -49.5t81.5 -16.5t82 15.5t62 46t24 74.5l-16 60q0 -32 -14 -54t-36 -33t-48 -11q-18 0 -33 6.5t-24 19t-9 30.5z
M109 319q10 6 32 15.5t51.5 16.5t60.5 7q21 0 37.5 -4t27.5 -13t16.5 -21.5t5.5 -29.5v-290h145v324q0 48 -28 81t-76 50.5t-109 17.5q-65 0 -120 -17t-94 -36z" />
    <glyph glyph-name="b" unicode="b" horiz-adv-x="617" 
d="M209 780h-151v-780h151v780zM585 230q0 78 -31.5 131t-81 81t-106.5 28t-102 -29t-71 -82.5t-26 -128.5q0 -74 26 -128t71 -83t102 -29t106.5 28t81 81.5t31.5 130.5zM426 230q0 -36 -15 -62.5t-40 -41t-55 -14.5q-26 0 -50.5 14t-40.5 40.5t-16 63.5t16 63.5t40.5 40.5
t50.5 14q30 0 55 -14.5t40 -41t15 -62.5z" />
    <glyph glyph-name="c" unicode="c" horiz-adv-x="494" 
d="M186 230q0 34 16 61t44.5 43t61.5 16q25 0 51 -8t48.5 -23t36.5 -37v148q-24 17 -60 28.5t-88 11.5q-76 0 -136.5 -30t-95 -83.5t-34.5 -126.5q0 -72 34.5 -126t95 -84t136.5 -30q52 0 88 11.5t60 30.5v147q-14 -22 -35.5 -37t-47 -23.5t-53.5 -8.5q-33 0 -61.5 15
t-44.5 41.5t-16 63.5z" />
    <glyph glyph-name="d" unicode="d" horiz-adv-x="617" 
d="M408 780v-780h151v780h-151zM32 230q0 -77 31.5 -130.5t81.5 -81.5t106 -28q58 0 102.5 29t70.5 83t26 128q0 75 -26 128.5t-70.5 82.5t-102.5 29q-56 0 -106 -28t-81.5 -81t-31.5 -131zM191 230q0 36 15 62.5t40 41t55 14.5q26 0 50.5 -14t40.5 -40.5t16 -63.5
t-16 -63.5t-40.5 -40.5t-50.5 -14q-30 0 -55 14.5t-40 41t-15 62.5z" />
    <glyph glyph-name="e" unicode="e" horiz-adv-x="573" 
d="M293 -10q88 0 149.5 34t97.5 102l-135 33q-17 -30 -45.5 -45t-68.5 -15q-35 0 -59 15.5t-36 45.5t-12 72q1 46 12.5 76.5t34.5 45.5t57 15q27 0 47 -12t31 -34t11 -52q0 -7 -3.5 -17.5t-8.5 -17.5l36 46h-284v-84h420q2 7 2 17.5v21.5q0 74 -29 126t-84 79.5t-135 27.5
t-138.5 -29t-89.5 -83t-31 -128q0 -73 32 -127t90.5 -83.5t138.5 -29.5z" />
    <glyph glyph-name="f" unicode="f" horiz-adv-x="344" 
d="M18 460v-125h314v125h-314zM315 635l61 111q-10 10 -27 21.5t-41.5 20t-58.5 8.5q-57 0 -95.5 -20t-58 -57t-19.5 -89v-630h145v592q0 24 6 39t16.5 22t25.5 7q13 0 24.5 -6t21.5 -19z" />
    <glyph glyph-name="g" unicode="g" horiz-adv-x="610" 
d="M42 -33q5 -61 33 -107.5t83.5 -72.5t140.5 -26q71 0 128 25.5t91.5 80.5t34.5 143v450h-145v-450q0 -42 -15.5 -70.5t-41.5 -43t-58 -14.5q-29 0 -52 9.5t-36.5 28.5t-16.5 47h-146zM32 236q0 -77 31.5 -129t81.5 -78.5t106 -26.5q58 0 102.5 27.5t70.5 80t26 126.5
q0 75 -26 127t-70.5 79.5t-102.5 27.5q-56 0 -106 -26t-81.5 -78t-31.5 -130zM191 236q0 36 15 61t40 38t55 13q19 0 38 -7t34.5 -21t25 -35t9.5 -49q0 -37 -16 -62t-40.5 -37.5t-50.5 -12.5q-30 0 -55 13t-40 38.5t-15 60.5z" />
    <glyph glyph-name="h" unicode="h" horiz-adv-x="568" 
d="M211 780h-152v-780h152v780zM358 280v-280h151v302q0 57 -16 96t-50.5 59t-91.5 20t-93.5 -26.5t-54.5 -71t-18 -99.5h26q0 27 10 45.5t28 29t42 10.5q37 0 52 -22t15 -63z" />
    <glyph glyph-name="i" unicode="i" horiz-adv-x="276" 
d="M50 633q0 -36 26 -59t62 -23q37 0 62.5 23t25.5 59t-25.5 58.5t-62.5 22.5q-36 0 -62 -22.5t-26 -58.5zM65 460v-460h146v460h-146z" />
    <glyph glyph-name="j" unicode="j" horiz-adv-x="272" 
d="M45 633q0 -36 25.5 -59t62.5 -23q36 0 61.5 23t25.5 59t-25.5 58.5t-61.5 22.5q-37 0 -62.5 -22.5t-25.5 -58.5zM-33 -77l-61 -111q12 -11 28.5 -23t41 -20t57.5 -8q58 0 96.5 21t58 58.5t19.5 87.5v532h-146v-494q0 -24 -5 -39t-16 -22.5t-27 -7.5q-14 0 -25.5 7
t-20.5 19z" />
    <glyph glyph-name="k" unicode="k" horiz-adv-x="577" 
d="M58 780v-780h145v780h-145zM370 460l-197 -190l220 -270h177l-216 270l196 190h-180z" />
    <glyph glyph-name="l" unicode="l" horiz-adv-x="270" 
d="M59 780v-780h152v780h-152z" />
    <glyph glyph-name="m" unicode="m" horiz-adv-x="820" 
d="M761 296q0 56 -14 95t-45.5 59.5t-85.5 20.5q-47 0 -84 -20t-62 -56q-14 37 -46 56.5t-86 19.5q-47 0 -80.5 -21t-52.5 -58v68h-146v-460h146v280q0 28 8.5 47t24 28.5t35.5 9.5q31 0 44.5 -21.5t13.5 -63.5v-280h152v280q0 28 8.5 47t24 28.5t35.5 9.5q31 0 44.5 -21.5
t13.5 -63.5v-280h152v296z" />
    <glyph glyph-name="n" unicode="n" 
d="M358 280v-280h157v296q0 83 -39 129t-125 46q-51 0 -85.5 -21t-54.5 -59v69h-152v-460h152v280q0 27 10 46t28 29t42 10q36 0 51.5 -22t15.5 -63z" />
    <glyph glyph-name="o" unicode="o" horiz-adv-x="589" 
d="M32 230q0 -72 34 -126t94 -84t135 -30t134.5 30t94 84t34.5 126q0 73 -34.5 127t-94 84t-134.5 30t-135 -30t-94 -84t-34 -127zM187 230q0 36 15 62t39 40t54 14q29 0 53.5 -14t39 -40t14.5 -62t-14.5 -61.5t-39 -39.5t-53.5 -14q-30 0 -54 14t-39 39.5t-15 61.5z" />
    <glyph glyph-name="p" unicode="p" horiz-adv-x="617" 
d="M209 -220v680h-151v-680h151zM585 230q0 81 -31.5 135.5t-81 82.5t-106.5 28q-60 0 -103.5 -30.5t-66.5 -85.5t-23 -130q0 -74 23 -129.5t66.5 -86t103.5 -30.5q57 0 106.5 28t81 83t31.5 135zM426 230q0 -36 -15 -61t-40 -38t-55 -13q-26 0 -50.5 12.5t-40.5 37.5
t-16 62t16 62t40.5 37.5t50.5 12.5q30 0 55 -13t40 -38t15 -61z" />
    <glyph glyph-name="q" unicode="q" horiz-adv-x="617" 
d="M408 -220h151v680h-151v-680zM32 230q0 -80 31.5 -135t81.5 -83t106 -28q61 0 104 30.5t66 86t23 129.5q0 75 -23 130t-66 85.5t-104 30.5q-56 0 -106 -28t-81.5 -82.5t-31.5 -135.5zM191 230q0 36 15 61t40 38t55 13q26 0 50.5 -12.5t40.5 -37.5t16 -62t-16 -62
t-40.5 -37.5t-50.5 -12.5q-30 0 -55 13t-40 38t-15 61z" />
    <glyph glyph-name="r" unicode="r" horiz-adv-x="411" 
d="M208 460h-149v-460h149v460zM341 304l65 129q-12 18 -35 28t-48 10q-38 0 -73 -25t-56.5 -68t-21.5 -98l36 -53q0 33 9 56t26 35t39 12q20 0 33.5 -7t25.5 -19z" />
    <glyph glyph-name="s" unicode="s" horiz-adv-x="456" 
d="M84 167l-63 -100q31 -24 67 -43.5t78.5 -31t91.5 -11.5q83 0 128.5 37.5t45.5 111.5q0 43 -18.5 69t-49 43t-66.5 30q-34 13 -57.5 21.5t-36 18.5t-12.5 25q0 13 10.5 21t31.5 8q31 0 68 -17.5t66 -44.5l54 98q-27 20 -57.5 35t-65 24t-74.5 9q-50 0 -88.5 -15t-61 -44
t-22.5 -71q0 -44 19 -72t48.5 -44.5t62.5 -28.5q37 -11 58.5 -21t30.5 -20.5t9 -25.5q0 -16 -11 -26t-34 -10q-16 0 -38 6.5t-50.5 23t-63.5 45.5z" />
    <glyph glyph-name="t" unicode="t" horiz-adv-x="318" 
d="M5 460v-125h308v125h-308zM86 620v-620h145v620h-145z" />
    <glyph glyph-name="u" unicode="u" 
d="M217 180v280h-158v-296q0 -82 39.5 -128.5t125.5 -46.5q51 0 85 21.5t55 58.5v-69h151v460h-151v-280q0 -27 -10 -46t-27.5 -29t-42.5 -10q-37 0 -52 22.5t-15 62.5z" />
    <glyph glyph-name="v" unicode="v" horiz-adv-x="527" 
d="M-3 460l266 -514l267 514h-161l-106 -255l-105 255h-161z" />
    <glyph glyph-name="w" unicode="w" horiz-adv-x="761" 
d="M-7 460l237 -489l149 274l152 -274l237 489h-158l-96 -236l-136 271l-131 -271l-96 236h-158z" />
    <glyph glyph-name="x" unicode="x" horiz-adv-x="532" 
d="M354 460l-86 -121l-84 121h-174l179 -224l-189 -236h174l94 134l96 -134h168l-186 236l176 224h-168z" />
    <glyph glyph-name="y" unicode="y" horiz-adv-x="521" 
d="M530 460h-155l-147 -368l78 -1l-149 369h-166l199 -423l-112 -257h152z" />
    <glyph glyph-name="z" unicode="z" horiz-adv-x="522" 
d="M257 323l-242 -323h460v137h-198l230 323h-450v-137h200z" />
    <glyph glyph-name="braceleft" unicode="{" horiz-adv-x="398" 
d="M265 610q0 20 13 35t35 15h35v120h-91q-41 0 -77.5 -14.5t-59 -45t-22.5 -80.5v-185q0 -57 -14 -79.5t-46 -30.5v-110q32 -7 46 -30t14 -80v-185q0 -49 22.5 -80t59 -45.5t77.5 -14.5h91v120h-35q-22 0 -35 15.5t-13 34.5v120q0 33 -3 70t-16.5 68.5t-42.5 51.5t-82 20
v-20q53 0 82 20t42.5 51.5t16.5 68.5t3 70v120z" />
    <glyph glyph-name="bar" unicode="|" horiz-adv-x="352" 
d="M100 785v-1000h152v1000h-152z" />
    <glyph glyph-name="braceright" unicode="}" horiz-adv-x="398" 
d="M136 -30q0 -19 -12.5 -34.5t-35.5 -15.5h-35v-120h91q41 0 77.5 14.5t59 45.5t22.5 80v185q0 57 15 80t46 30v110q-31 8 -46 30.5t-15 79.5v185q0 50 -22.5 80.5t-59 45t-77.5 14.5h-91v-120h35q23 0 35.5 -15t12.5 -35v-120q0 -33 3.5 -70t16.5 -68.5t42.5 -51.5
t81.5 -20v20q-52 0 -81.5 -20t-42.5 -51.5t-16.5 -68.5t-3.5 -70v-120z" />
    <glyph glyph-name="asciitilde" unicode="~" 
d="M156 164l-4 12t-2 16q0 16 9.5 30.5t33.5 14.5q13 0 26 -4t27 -11.5t30 -18.5q37 -24 65.5 -37t58.5 -13q42 0 67.5 14t44.5 39q18 22 23.5 47t5.5 49q0 8 -1 15t-3 13l-121 5q3 -7 5 -15.5t2 -17.5q0 -16 -8 -27.5t-25 -11.5q-13 0 -30.5 9t-40.5 25q-24 16 -44 27
t-39 16.5t-42 5.5q-50 0 -79 -16.5t-50 -42.5q-18 -22 -24.5 -45.5t-6.5 -48.5q0 -13 3 -24z" />
    <glyph glyph-name="uni00A0" unicode="&#xa0;" horiz-adv-x="300" 
 />
    <glyph glyph-name="exclamdown" unicode="&#xa1;" horiz-adv-x="343" 
d="M265 -229l-32 468h-122l-33 -468h187zM266 409q0 38 -26.5 62t-67.5 24t-67.5 -24t-26.5 -62t26.5 -62t67.5 -24t67.5 24t26.5 62z" />
    <glyph glyph-name="cent" unicode="&#xa2;" horiz-adv-x="580" 
d="M237 38l-10 -150h129l-9 150h-110zM205 230q0 36 17.5 62.5t45.5 42t60 15.5q47 0 81 -20.5t54 -49.5v150q-24 18 -62 29t-85 11q-76 0 -136.5 -30t-95 -83.5t-34.5 -126.5q0 -72 34.5 -126t95 -84t136.5 -30q47 0 85 11t62 29v150q-20 -29 -54 -49.5t-81 -20.5
q-32 0 -60 14t-45.5 40.5t-17.5 65.5zM227 578l10 -150h110l9 150h-129z" />
    <glyph glyph-name="sterling" unicode="&#xa3;" horiz-adv-x="611" 
d="M67 370v-100h379v100h-379zM434 467l137 50q-2 33 -19 66.5t-48 62t-75.5 46.5t-101.5 18q-65 0 -120 -22.5t-88.5 -64.5t-33.5 -102q0 -35 10.5 -60.5t26 -46t31 -39t26 -40t10.5 -49.5q0 -50 -14 -96t-44 -92.5t-79 -97.5h487v139h-348l-51 -89q28 8 61 28t64 49.5
t50.5 66t19.5 76.5q0 34 -9 59t-22.5 44.5t-27.5 37.5t-23.5 38t-9.5 46q0 29 13 47t33.5 26t43.5 8q28 0 47 -9t30 -25t17 -35.5t7 -39.5z" />
    <glyph glyph-name="currency" unicode="&#xa4;" horiz-adv-x="577" 
d="M23 503l101 -99l61 61l-99 100zM86 35l99 100l-61 61l-101 -99zM454 404l99 99l-61 62l-100 -100zM392 135l100 -100l61 62l-99 99zM51 300q0 -69 31.5 -123.5t85.5 -85.5t121 -31q68 0 121.5 31t85 85.5t31.5 123.5q0 70 -31.5 124t-85 85t-121.5 31q-67 0 -121 -31
t-85.5 -85t-31.5 -124zM188 300q0 31 13 54.5t35.5 36t52.5 12.5q29 0 52 -12.5t36 -36t13 -54.5t-13 -54.5t-36 -36t-52 -12.5q-30 0 -52.5 12.5t-35.5 36t-13 54.5z" />
    <glyph glyph-name="yen" unicode="&#xa5;" horiz-adv-x="669" 
d="M45 265h575v100h-575v-100zM45 115h575v100h-575v-100zM471 700l-138 -263l-136 263h-194l245 -416v-284h173v287l243 413h-193z" />
    <glyph glyph-name="brokenbar" unicode="&#xa6;" horiz-adv-x="352" 
d="M100 695v-265h152v265h-152zM252 270h-152v-265h152v265z" />
    <glyph glyph-name="section" unicode="&#xa7;" horiz-adv-x="576" 
d="M400 549l72 99q-14 21 -43 38t-66.5 27.5t-78.5 10.5q-44 0 -86.5 -16.5t-70.5 -48.5t-28 -81q0 -31 11 -54t28.5 -39.5t39 -28.5t43.5 -20q27 -10 55 -21t47.5 -27.5t19.5 -43.5q0 -20 -11 -35.5t-28 -25t-36 -12.5v-42q41 0 78.5 8.5t68 27t48 46.5t17.5 67
q0 37 -18 65t-49 47t-69 29q-21 6 -39.5 11t-32 10t-21.5 12.5t-8 16.5t6 15.5t17 10.5t28 4q16 0 35 -6t38 -17.5t33 -26.5zM128 173l-73 -97q23 -28 55.5 -50.5t76.5 -35t98 -12.5q37 0 73 8.5t64 27.5t45 48t17 68q0 40 -18 68t-47 47.5t-62 32.5q-19 8 -41.5 15t-43 16
t-33 23t-12.5 37q0 21 10 34t28 22.5t38 16.5v38q-43 0 -82 -9t-70 -28t-49 -46t-18 -63q0 -38 22 -65.5t57 -45.5t72 -29q28 -7 50 -14.5t35 -17.5t13 -25q0 -11 -6 -18.5t-18 -12t-31 -4.5t-45 7.5t-53.5 23.5t-51.5 40z" />
    <glyph glyph-name="dieresis" unicode="&#xa8;" horiz-adv-x="511" 
d="M289 632q0 -36 26 -59t62 -23q37 0 62.5 23t25.5 59t-25.5 59t-62.5 23q-36 0 -62 -23t-26 -59zM46 632q0 -36 25.5 -59t62.5 -23q36 0 62 23t26 59t-26 59t-62 23q-37 0 -62.5 -23t-25.5 -59z" />
    <glyph glyph-name="copyright" unicode="&#xa9;" horiz-adv-x="800" 
d="M289 350q0 39 16.5 66.5t45.5 42t64 14.5q44 0 74.5 -16.5t50.5 -38.5v109q-25 20 -55 31.5t-76 11.5q-68 0 -119.5 -28t-81.5 -77.5t-30 -114.5t30 -114.5t81.5 -77.5t119.5 -28q46 0 76 11.5t55 31.5v109q-20 -22 -50.5 -38.5t-74.5 -16.5q-35 0 -64 14.5t-45.5 42.5
t-16.5 66zM95 350q0 67 23 123.5t64.5 98.5t97 65t120.5 23t120.5 -23t97 -65t64.5 -98.5t23 -123.5t-23 -123.5t-64.5 -98.5t-97 -65t-120.5 -23t-120.5 23t-97 65t-64.5 98.5t-23 123.5zM40 350q0 -78 27.5 -144t76 -114.5t114.5 -75t142 -26.5q77 0 142.5 26.5t114 75
t76 114.5t27.5 144t-27.5 144t-76 114.5t-114 75t-142.5 26.5q-76 0 -142 -26.5t-114.5 -75t-76 -114.5t-27.5 -144z" />
    <glyph glyph-name="ordfeminine" unicode="&#xaa;" horiz-adv-x="270" 
d="M94 530q0 14 11 23t29 9q20 0 34 -5t26 -14v36q-7 8 -29 16t-48 8q-42 0 -70.5 -20.5t-28.5 -54.5q0 -35 23.5 -54t59.5 -19t60.5 18.5t24.5 51.5l-8 28q0 -28 -16 -38t-35 -10q-16 0 -24.5 6.5t-8.5 18.5zM64 625q8 5 28 12.5t45 7.5q19 0 30 -9.5t11 -24.5v-151h72v171
q0 36 -30 55t-76 19q-31 0 -58.5 -8.5t-47.5 -17.5z" />
    <glyph glyph-name="guillemotleft" unicode="&#xab;" horiz-adv-x="541" 
d="M352 259l150 186l-93 64l-178 -254l178 -254l93 64zM149 259l150 186l-94 64l-177 -254l177 -254l94 64z" />
    <glyph glyph-name="logicalnot" unicode="&#xac;" horiz-adv-x="650" 
d="M65 272h414v-97h106v228h-520v-131z" />
    <glyph glyph-name="uni00AD" unicode="&#xad;" horiz-adv-x="210" 
d="M5 200h200v75h-200v-75z" />
    <glyph glyph-name="registered" unicode="&#xae;" horiz-adv-x="800" 
d="M377 328l93 -178h119l-119 178h-93zM253 570v-420h102v420h-102zM317 484l82 1q31 0 48.5 -13t17.5 -39q0 -27 -17.5 -40t-48.5 -13h-82v-78h90q80 0 121.5 38.5t41.5 98.5q0 56 -41.5 93.5t-121.5 37.5h-90v-86zM95 350q0 67 23 123.5t64.5 98.5t97 65t120.5 23
t120.5 -23t97 -65t64.5 -98.5t23 -123.5t-23 -123.5t-64.5 -98.5t-97 -65t-120.5 -23t-120.5 23t-97 65t-64.5 98.5t-23 123.5zM40 350q0 -78 27.5 -144t76 -114.5t114.5 -75t142 -26.5q77 0 142.5 26.5t114 75t76 114.5t27.5 144t-27.5 144t-76 114.5t-114 75t-142.5 26.5
q-76 0 -142 -26.5t-114.5 -75t-76 -114.5t-27.5 -144z" />
    <glyph glyph-name="macron" unicode="&#xaf;" horiz-adv-x="532" 
d="M80 572h372v131h-372v-131z" />
    <glyph glyph-name="degree" unicode="&#xb0;" horiz-adv-x="297" 
d="M17 597q0 -54 37 -88.5t94 -34.5q56 0 94 34.5t38 88.5q0 55 -38 89t-94 34q-57 0 -94 -34t-37 -89zM91 597q0 27 16 43t41 16q24 0 40.5 -16t16.5 -43t-16.5 -42.5t-40.5 -15.5q-25 0 -41 15.5t-16 42.5z" />
    <glyph glyph-name="plusminus" unicode="&#xb1;" horiz-adv-x="634" 
d="M65 6h504v130h-504v-130zM65 333h504v135h-504v-135zM240 620v-439h153v439h-153z" />
    <glyph glyph-name="uni00B2" unicode="&#xb2;" horiz-adv-x="408" 
d="M25 282h356v93h-168l97 87q28 24 44.5 52t16.5 61t-18 64t-52.5 51.5t-87.5 20.5q-54 0 -91.5 -22.5t-57 -59.5t-19.5 -82h100q0 34 18 55.5t47 21.5q20 0 32 -7.5t18 -20t6 -26.5q0 -25 -14 -46t-40 -48z" />
    <glyph glyph-name="uni00B3" unicode="&#xb3;" horiz-adv-x="365" 
d="M154 483q50 0 90.5 12t64 36.5t23.5 60.5q0 48 -38.5 82t-109.5 34q-67 0 -107.5 -37.5t-40.5 -93.5h93q0 23 15.5 36.5t39.5 13.5t36 -11.5t12 -29.5q0 -15 -10 -28.5t-27.5 -21t-40.5 -7.5v-46zM180 270q77 0 120.5 35t43.5 90q0 42 -24.5 68.5t-67 39t-98.5 12.5v-51
q31 0 50.5 -7.5t29.5 -21t10 -31.5q0 -27 -17.5 -39.5t-43.5 -12.5t-45.5 15t-19.5 46h-100q0 -37 19 -69.5t55.5 -53t87.5 -20.5z" />
    <glyph glyph-name="acute" unicode="&#xb4;" horiz-adv-x="375" 
d="M319 654l-116 52l-150 -160l86 -42z" />
    <glyph glyph-name="mu" unicode="&#xb5;" 
d="M217 460h-158v-780h146v335q19 -11 34 -15t32 -4q30 0 53.5 16t39.5 41v-53h151v460h-151v-255q0 -27 -10 -46t-27.5 -29t-42.5 -10q-37 0 -52 22t-15 63v255z" />
    <glyph glyph-name="paragraph" unicode="&#xb6;" horiz-adv-x="671" 
d="M288 270v-490h132v827h59v-827h132v920h-323q-62 0 -114 -25t-83 -72.5t-31 -117.5q0 -69 31 -117t83 -73t114 -25z" />
    <glyph glyph-name="periodcentered" unicode="&#xb7;" horiz-adv-x="322" 
d="M67 268q0 -38 27 -65t67 -27q42 0 68 27t26 65t-26 65t-68 27q-40 0 -67 -27t-27 -65z" />
    <glyph glyph-name="cedilla" unicode="&#xb8;" horiz-adv-x="393" 
d="M184 71l-88 -195q26 11 50.5 14t31.5 3q23 0 42 -6.5t19 -26.5q0 -18 -14.5 -26.5t-40.5 -8.5q-14 0 -36.5 6t-41.5 20l-46 -69q36 -22 69 -30.5t75 -8.5q32 0 62 12t49.5 36.5t19.5 60.5q0 33 -14.5 54.5t-35.5 32t-41 10.5q-10 0 -19 -0.5t-18 -2.5l87 121z" />
    <glyph glyph-name="uni00B9" unicode="&#xb9;" horiz-adv-x="482" 
d="M133 572l105 27v-325h97v428l-202 -41v-89z" />
    <glyph glyph-name="ordmasculine" unicode="&#xba;" horiz-adv-x="278" 
d="M19 580q0 -54 37 -87t94 -33q56 0 94 33t38 87q0 55 -38 87.5t-94 32.5q-57 0 -94 -32.5t-37 -87.5zM96 580q0 27 15.5 42.5t38.5 15.5q22 0 38 -15.5t16 -42.5t-16 -42t-38 -15q-23 0 -38.5 15t-15.5 42z" />
    <glyph glyph-name="guillemotright" unicode="&#xbb;" horiz-adv-x="541" 
d="M189 251l-150 -186l93 -64l178 254l-178 254l-93 -64zM392 251l-150 -186l94 -64l177 254l-177 254l-94 -64z" />
    <glyph glyph-name="onequarter" unicode="&#xbc;" horiz-adv-x="822" 
d="M630 700l-520 -700h96l520 700h-96zM24 572l104 27v-325h98v428l-202 -41v-89zM407 75h385v86h-107l-10 -13h-185zM509 105l123 168v-170l-11 -6v-97h105v420h-75l-244 -345z" />
    <glyph glyph-name="onehalf" unicode="&#xbd;" horiz-adv-x="894" 
d="M630 700l-520 -700h96l520 700h-96zM24 572l104 27v-325h98v428l-202 -41v-89zM505 2h356v93h-168l98 87q27 24 43.5 52t16.5 61t-17.5 64t-52.5 51.5t-87 20.5q-54 0 -92 -22.5t-57 -59.5t-19 -82h99q0 34 18.5 55.5t47.5 21.5q19 0 31.5 -7.5t18.5 -20t6 -26.5
q0 -25 -14.5 -46t-39.5 -48z" />
    <glyph glyph-name="threequarters" unicode="&#xbe;" horiz-adv-x="879" 
d="M694 700l-520 -700h96l520 700h-96zM162 483q50 0 90.5 12t64 36.5t23.5 60.5q0 48 -38.5 82t-109.5 34q-66 0 -107 -37.5t-41 -93.5h93q0 23 15.5 36.5t39.5 13.5t36 -11.5t12 -29.5q0 -15 -10 -28.5t-27.5 -21t-40.5 -7.5v-46zM188 270q77 0 120.5 35t43.5 90
q0 42 -24.5 68.5t-67 39t-98.5 12.5v-51q31 0 51 -7.5t29.5 -21t9.5 -31.5q0 -27 -17.5 -39.5t-43.5 -12.5t-45.5 15t-19.5 46h-100q0 -37 19 -69.5t55.5 -53t87.5 -20.5zM464 75h386v86h-107l-10 -13h-186zM567 105l123 168v-170l-11 -6v-97h105v420h-75l-245 -345z" />
    <glyph glyph-name="questiondown" unicode="&#xbf;" horiz-adv-x="627" 
d="M206 200q0 26 19.5 54t58.5 47.5t99 19.5h32l-20 178h-122l-5 -84q-53 -9 -102.5 -36.5t-80.5 -72t-31 -106.5q0 -52 21 -92.5t57.5 -69t82 -43t94.5 -14.5q60 0 107.5 15.5t87.5 44.5t75 70l-102 84q-28 -42 -70 -64.5t-88 -22.5q-36 0 -61 11t-38.5 31.5t-13.5 49.5z
M427 641q0 34 -26 58.5t-68 24.5q-41 0 -67.5 -24.5t-26.5 -58.5q0 -33 26.5 -58t67.5 -25q42 0 68 25t26 58z" />
    <glyph glyph-name="Agrave" unicode="&#xc0;" horiz-adv-x="735" 
d="M184 135h370l-11 129h-347zM367 443l99 -227l-6 -43l84 -173h192l-369 744l-368 -744h191l87 180l-8 37zM206 954l180 -150l86 43l-150 160z" />
    <glyph glyph-name="Aacute" unicode="&#xc1;" horiz-adv-x="735" 
d="M184 135h370l-11 129h-347zM367 443l99 -227l-6 -43l84 -173h192l-369 744l-368 -744h191l87 180l-8 37zM525 954l-115 53l-150 -160l85 -43z" />
    <glyph glyph-name="Acircumflex" unicode="&#xc2;" horiz-adv-x="735" 
d="M184 135h370l-11 129h-347zM367 443l99 -227l-6 -43l84 -173h192l-369 744l-368 -744h191l87 180l-8 37zM367 875l92 -86l106 71l-198 140l-197 -140l106 -71z" />
    <glyph glyph-name="Atilde" unicode="&#xc3;" horiz-adv-x="735" 
d="M184 135h370l-11 129h-347zM367 443l99 -227l-6 -43l84 -173h192l-369 744l-368 -744h191l87 180l-8 37zM171 862l72 -62q0 8 3.5 20t14 21.5t29.5 9.5q25 0 46 -13t43.5 -26.5t49.5 -13.5q32 0 59.5 13.5t47 34t27.5 38.5l-71 74q-15 -24 -30.5 -38.5t-34.5 -14.5
q-21 0 -36 8t-28.5 18t-30.5 18t-41 8q-32 0 -57.5 -13.5t-41.5 -35t-21 -46.5z" />
    <glyph glyph-name="Adieresis" unicode="&#xc4;" horiz-adv-x="735" 
d="M184 135h370l-11 129h-347zM367 443l99 -227l-6 -43l84 -173h192l-369 744l-368 -744h191l87 180l-8 37zM420 830q0 -36 25.5 -59t62.5 -23q36 0 62 23t26 59t-26 59t-62 23q-37 0 -62.5 -23t-25.5 -59zM133 836q0 -35 25.5 -58t62.5 -23q36 0 62 23t26 58q0 36 -26 59
t-62 23q-37 0 -62.5 -23t-25.5 -59z" />
    <glyph glyph-name="Aring" unicode="&#xc5;" horiz-adv-x="735" 
d="M184 135h370l-11 129h-347zM367 443l99 -227l-6 -43l84 -173h192l-369 744l-368 -744h191l87 180l-8 37zM242 800q0 -51 36.5 -83t88.5 -32t88.5 32t36.5 83q0 52 -36.5 84t-88.5 32t-88.5 -32t-36.5 -84zM321 800q0 23 13.5 36t32.5 13t32.5 -13t13.5 -36
q0 -22 -13.5 -34.5t-32.5 -12.5t-32.5 12.5t-13.5 34.5z" />
    <glyph glyph-name="AE" unicode="&#xc6;" horiz-adv-x="1084" 
d="M270 151h306v155h-300zM438 700l-424 -700h213l373 660zM630 0h384v139h-384v-139zM638 561h376v139h-576zM630 300h364v136h-364v-136zM549 700v-700h181v700h-181z" />
    <glyph glyph-name="Ccedilla" unicode="&#xc7;" horiz-adv-x="701" 
d="M218 350q0 65 29 111t76.5 70t104.5 24q50 0 88 -12.5t68 -34t53 -45.5v182q-42 33 -92 52t-127 19q-84 0 -155 -26t-122 -75t-79 -116t-28 -149t28 -149t79 -116t122 -75t155 -26q77 0 127 19t92 52v182q-23 -24 -53 -45t-68 -34t-88 -13q-57 0 -104.5 24t-76.5 70.5
t-29 110.5zM358 48l-88 -194q26 11 51 13.5t32 2.5q23 0 41.5 -6.5t18.5 -25.5q0 -18 -14 -26.5t-40 -8.5q-15 0 -37.5 5.5t-41.5 19.5l-45 -69q35 -22 68.5 -30.5t75.5 -8.5q31 0 61 12t50 36.5t20 60.5q0 33 -14.5 54.5t-36 32t-41.5 10.5q-10 0 -19 -0.5t-17 -2.5l86 122
z" />
    <glyph glyph-name="Egrave" unicode="&#xc8;" horiz-adv-x="603" 
d="M186 0h353v139h-353v-139zM186 561h353v139h-353v-139zM186 300h333v136h-333v-136zM74 700v-700h162v700h-162zM145 932l180 -150l85 43l-150 160z" />
    <glyph glyph-name="Eacute" unicode="&#xc9;" horiz-adv-x="603" 
d="M186 0h353v139h-353v-139zM186 561h353v139h-353v-139zM186 300h333v136h-333v-136zM74 700v-700h162v700h-162zM465 932l-116 53l-150 -160l86 -43z" />
    <glyph glyph-name="Ecircumflex" unicode="&#xca;" horiz-adv-x="603" 
d="M186 0h353v139h-353v-139zM186 561h353v139h-353v-139zM186 300h333v136h-333v-136zM74 700v-700h162v700h-162zM310 862l91 -86l106 71l-197 140l-197 -140l106 -71z" />
    <glyph glyph-name="Edieresis" unicode="&#xcb;" horiz-adv-x="603" 
d="M186 0h353v139h-353v-139zM186 561h353v139h-353v-139zM186 300h333v136h-333v-136zM74 700v-700h162v700h-162zM344 866q0 -36 26 -59t62 -23q37 0 62.5 23t25.5 59t-25.5 58.5t-62.5 22.5q-36 0 -62 -22.5t-26 -58.5zM101 866q0 -36 25.5 -59t62.5 -23q36 0 62 23
t26 59t-26 58.5t-62 22.5q-37 0 -62.5 -22.5t-25.5 -58.5z" />
    <glyph glyph-name="Igrave" unicode="&#xcc;" horiz-adv-x="320" 
d="M74 700v-700h172v700h-172zM-8 932l180 -150l86 43l-150 160z" />
    <glyph glyph-name="Iacute" unicode="&#xcd;" horiz-adv-x="320" 
d="M74 700v-700h172v700h-172zM312 932l-115 53l-150 -160l85 -43z" />
    <glyph glyph-name="Icircumflex" unicode="&#xce;" horiz-adv-x="320" 
d="M74 700v-700h172v700h-172zM160 862l91 -86l106 71l-197 140l-197 -140l106 -71z" />
    <glyph glyph-name="Idieresis" unicode="&#xcf;" horiz-adv-x="320" 
d="M74 700v-700h172v700h-172zM194 858q0 -36 25.5 -59t62.5 -23q36 0 62 23t26 59t-26 59t-62 23q-37 0 -62.5 -23t-25.5 -59zM-49 858q0 -36 25.5 -59t61.5 -23q37 0 62.5 23t25.5 59t-25.5 59t-62.5 23q-36 0 -61.5 -23t-25.5 -59z" />
    <glyph glyph-name="Eth" unicode="&#xd0;" horiz-adv-x="733" 
d="M6 303h349v99h-349v-99zM74 700v-700h174v700h-174zM324 0q115 0 199 43t130 121.5t46 185.5q0 108 -46 186t-130 121t-199 43h-138v-150h132q40 0 77.5 -10t66 -33t45.5 -61.5t17 -95.5t-17 -95.5t-45.5 -61.5t-66 -33t-77.5 -10h-132v-150h138z" />
    <glyph glyph-name="Ntilde" unicode="&#xd1;" horiz-adv-x="794" 
d="M557 700v-394l-483 429v-735h162v394l484 -429v735h-163zM172 833l71 -62q0 8 4 20t14 21.5t29 9.5q25 0 46 -13.5t44 -26.5t50 -13q31 0 58.5 13.5t47.5 33.5t28 38l-71 74q-15 -24 -31 -38.5t-35 -14.5q-21 0 -36 8t-28 18.5t-30 18t-42 7.5q-31 0 -56.5 -13.5
t-41.5 -34.5t-21 -46z" />
    <glyph glyph-name="Ograve" unicode="&#xd2;" horiz-adv-x="821" 
d="M213 350q0 62 24.5 109.5t69 74.5t104.5 27q61 0 105 -27t68 -74.5t24 -109.5t-24.5 -109.5t-69 -74.5t-103.5 -27q-60 0 -104.5 27t-69 74.5t-24.5 109.5zM34 350q0 -81 27.5 -149t78 -118t119.5 -77.5t152 -27.5q82 0 151 27.5t119.5 77.5t78 118t27.5 149t-28 148
t-79 116t-119.5 75.5t-149.5 26.5q-80 0 -149 -26.5t-120 -75.5t-79.5 -116t-28.5 -148zM263 932l180 -150l85 43l-150 160z" />
    <glyph glyph-name="Oacute" unicode="&#xd3;" horiz-adv-x="821" 
d="M213 350q0 62 24.5 109.5t69 74.5t104.5 27q61 0 105 -27t68 -74.5t24 -109.5t-24.5 -109.5t-69 -74.5t-103.5 -27q-60 0 -104.5 27t-69 74.5t-24.5 109.5zM34 350q0 -81 27.5 -149t78 -118t119.5 -77.5t152 -27.5q82 0 151 27.5t119.5 77.5t78 118t27.5 149t-28 148
t-79 116t-119.5 75.5t-149.5 26.5q-80 0 -149 -26.5t-120 -75.5t-79.5 -116t-28.5 -148zM574 932l-115 53l-150 -160l85 -43z" />
    <glyph glyph-name="Ocircumflex" unicode="&#xd4;" horiz-adv-x="821" 
d="M213 350q0 62 24.5 109.5t69 74.5t104.5 27q61 0 105 -27t68 -74.5t24 -109.5t-24.5 -109.5t-69 -74.5t-103.5 -27q-60 0 -104.5 27t-69 74.5t-24.5 109.5zM34 350q0 -81 27.5 -149t78 -118t119.5 -77.5t152 -27.5q82 0 151 27.5t119.5 77.5t78 118t27.5 149t-28 148
t-79 116t-119.5 75.5t-149.5 26.5q-80 0 -149 -26.5t-120 -75.5t-79.5 -116t-28.5 -148zM420 862l91 -86l106 71l-197 140l-197 -140l105 -71z" />
    <glyph glyph-name="Otilde" unicode="&#xd5;" horiz-adv-x="821" 
d="M213 350q0 62 24.5 109.5t69 74.5t104.5 27q61 0 105 -27t68 -74.5t24 -109.5t-24.5 -109.5t-69 -74.5t-103.5 -27q-60 0 -104.5 27t-69 74.5t-24.5 109.5zM34 350q0 -81 27.5 -149t78 -118t119.5 -77.5t152 -27.5q82 0 151 27.5t119.5 77.5t78 118t27.5 149t-28 148
t-79 116t-119.5 75.5t-149.5 26.5q-80 0 -149 -26.5t-120 -75.5t-79.5 -116t-28.5 -148zM221 839l71 -62q0 8 4 20t14 21.5t29 9.5q25 0 46 -13.5t44 -26.5t50 -13q31 0 58.5 13.5t47.5 33.5t28 38l-71 74q-15 -24 -30.5 -38.5t-34.5 -14.5q-22 0 -36.5 8t-28 18t-30.5 18
t-42 8q-31 0 -56.5 -13.5t-41.5 -34.5t-21 -46z" />
    <glyph glyph-name="Odieresis" unicode="&#xd6;" horiz-adv-x="821" 
d="M213 350q0 62 24.5 109.5t69 74.5t104.5 27q61 0 105 -27t68 -74.5t24 -109.5t-24.5 -109.5t-69 -74.5t-103.5 -27q-60 0 -104.5 27t-69 74.5t-24.5 109.5zM34 350q0 -81 27.5 -149t78 -118t119.5 -77.5t152 -27.5q82 0 151 27.5t119.5 77.5t78 118t27.5 149t-28 148
t-79 116t-119.5 75.5t-149.5 26.5q-80 0 -149 -26.5t-120 -75.5t-79.5 -116t-28.5 -148zM444 858q0 -36 26 -59t62 -23q37 0 62.5 23t25.5 59t-25.5 59t-62.5 23q-36 0 -62 -23t-26 -59zM201 858q0 -36 25.5 -59t62.5 -23q36 0 62 23t26 59t-26 59t-62 23q-37 0 -62.5 -23
t-25.5 -59z" />
    <glyph glyph-name="multiply" unicode="&#xd7;" horiz-adv-x="596" 
d="M140 3l158 163l158 -163l94 94l-163 158l163 158l-94 94l-158 -163l-158 163l-94 -94l163 -158l-163 -158z" />
    <glyph glyph-name="Oslash" unicode="&#xd8;" horiz-adv-x="790" 
d="M213 350q0 63 24.5 110.5t69 74t104.5 26.5q59 0 103.5 -26.5t69 -74t24.5 -110.5t-24.5 -110.5t-69 -74t-103.5 -26.5q-60 0 -104.5 26.5t-69 74t-24.5 110.5zM34 350q0 -81 28 -149t79 -118t120 -77.5t150 -27.5t149.5 27.5t119.5 77.5t79 118t28 149t-28 148t-79 116
t-119.5 75.5t-149.5 26.5t-150 -26.5t-120 -75.5t-79 -116t-28 -148zM697 756l-648 -760l71 -52l649 760z" />
    <glyph glyph-name="Ugrave" unicode="&#xd9;" horiz-adv-x="701" 
d="M69 700v-470q0 -66 21.5 -115t60 -80.5t89.5 -47.5t110 -16t110.5 16t90 47.5t60 80.5t21.5 115v470h-169v-458q0 -53 -28 -86t-85 -33q-56 0 -84 33t-28 86v458h-169zM189 926l180 -150l86 43l-150 160z" />
    <glyph glyph-name="Uacute" unicode="&#xda;" horiz-adv-x="701" 
d="M69 700v-470q0 -66 21.5 -115t60 -80.5t89.5 -47.5t110 -16t110.5 16t90 47.5t60 80.5t21.5 115v470h-169v-458q0 -53 -28 -86t-85 -33q-56 0 -84 33t-28 86v458h-169zM511 926l-115 53l-150 -160l85 -43z" />
    <glyph glyph-name="Ucircumflex" unicode="&#xdb;" horiz-adv-x="701" 
d="M69 700v-470q0 -66 21.5 -115t60 -80.5t89.5 -47.5t110 -16t110.5 16t90 47.5t60 80.5t21.5 115v470h-169v-458q0 -53 -28 -86t-85 -33q-56 0 -84 33t-28 86v458h-169zM350 862l92 -86l106 71l-198 140l-197 -140l106 -71z" />
    <glyph glyph-name="Udieresis" unicode="&#xdc;" horiz-adv-x="701" 
d="M69 700v-470q0 -66 21.5 -115t60 -80.5t89.5 -47.5t110 -16t110.5 16t90 47.5t60 80.5t21.5 115v470h-169v-458q0 -53 -28 -86t-85 -33q-56 0 -84 33t-28 86v458h-169zM403 858q0 -36 25.5 -59t62.5 -23q36 0 62 23t26 59t-26 59t-62 23q-37 0 -62.5 -23t-25.5 -59z
M122 858q0 -36 26 -59t62 -23q37 0 62.5 23t25.5 59t-25.5 59t-62.5 23q-36 0 -62 -23t-26 -59z" />
    <glyph glyph-name="Yacute" unicode="&#xdd;" horiz-adv-x="660" 
d="M491 926l-115 53l-150 -160l85 -43zM467 700l-137 -263l-137 263h-194l245 -416v-284h172v285l245 415h-194z" />
    <glyph glyph-name="Thorn" unicode="&#xde;" horiz-adv-x="612" 
d="M80 700v-700h147v700h-147zM174 446h136q39 0 66 -9.5t41.5 -29.5t14.5 -54t-14.5 -54t-41.5 -29.5t-66 -9.5h-136v-132h136q90 0 150.5 26.5t91.5 77.5t31 121q0 71 -31 121.5t-91.5 77.5t-150.5 27h-136v-133z" />
    <glyph glyph-name="germandbls" unicode="&#xdf;" horiz-adv-x="603" 
d="M373 -12q44 0 85.5 16t74 44t51.5 65.5t19 79.5q0 36 -10.5 61t-28 42.5t-36.5 30.5t-36 23.5t-28 22.5t-11 28q0 17 9 32.5t22 31.5t26 35.5t22 46.5t9 64q0 60 -32.5 102t-87 63t-121.5 21q-81 0 -137.5 -28.5t-86.5 -83t-30 -132.5l1 -555h151l-1 553q0 39 11.5 63.5
t33.5 36t53 11.5q26 0 46 -8.5t31.5 -26t11.5 -45.5q0 -26 -9 -47t-22.5 -39t-27 -34.5t-22.5 -35t-9 -40.5q0 -23 11 -40t28.5 -30.5t37 -25.5t36.5 -25t28 -31t11 -42q0 -23 -11 -41.5t-30 -29.5t-45 -11q-15 0 -33 4.5t-34.5 12t-29.5 16.5l-31 -115q17 -11 40 -20.5
t48.5 -14.5t52.5 -5z" />
    <glyph glyph-name="agrave" unicode="&#xe0;" horiz-adv-x="544" 
d="M176 137q0 19 9.5 32t28 20.5t44.5 7.5q39 0 66.5 -9.5t53.5 -28.5v71q-10 11 -33.5 22.5t-55 19t-66.5 7.5q-58 0 -103 -18t-70.5 -51.5t-25.5 -81.5q0 -43 20.5 -74t58.5 -47.5t88 -16.5q48 0 86.5 16.5t61 48t22.5 75.5l-16 56q0 -37 -14 -58t-37.5 -30t-51.5 -9
q-19 0 -34 5.5t-23.5 16t-8.5 26.5zM117 318q11 7 33 16.5t51.5 16.5t62.5 7q38 0 59.5 -17.5t21.5 -46.5v-294h145v324q0 48 -27.5 81t-76 50.5t-110.5 17.5t-116.5 -17t-93.5 -36zM104 683l180 -150l85 43l-150 160z" />
    <glyph glyph-name="aacute" unicode="&#xe1;" horiz-adv-x="544" 
d="M176 137q0 19 9.5 32t28 20.5t44.5 7.5q39 0 66.5 -9.5t53.5 -28.5v71q-10 11 -33.5 22.5t-55 19t-66.5 7.5q-58 0 -103 -18t-70.5 -51.5t-25.5 -81.5q0 -43 20.5 -74t58.5 -47.5t88 -16.5q48 0 86.5 16.5t61 48t22.5 75.5l-16 56q0 -37 -14 -58t-37.5 -30t-51.5 -9
q-19 0 -34 5.5t-23.5 16t-8.5 26.5zM117 318q11 7 33 16.5t51.5 16.5t62.5 7q38 0 59.5 -17.5t21.5 -46.5v-294h145v324q0 48 -27.5 81t-76 50.5t-110.5 17.5t-116.5 -17t-93.5 -36zM448 683l-115 53l-150 -160l85 -43z" />
    <glyph glyph-name="acircumflex" unicode="&#xe2;" horiz-adv-x="544" 
d="M176 137q0 19 9.5 32t28 20.5t44.5 7.5q39 0 66.5 -9.5t53.5 -28.5v71q-10 11 -33.5 22.5t-55 19t-66.5 7.5q-58 0 -103 -18t-70.5 -51.5t-25.5 -81.5q0 -43 20.5 -74t58.5 -47.5t88 -16.5q48 0 86.5 16.5t61 48t22.5 75.5l-16 56q0 -37 -14 -58t-37.5 -30t-51.5 -9
q-19 0 -34 5.5t-23.5 16t-8.5 26.5zM117 318q11 7 33 16.5t51.5 16.5t62.5 7q38 0 59.5 -17.5t21.5 -46.5v-294h145v324q0 48 -27.5 81t-76 50.5t-110.5 17.5t-116.5 -17t-93.5 -36zM276 619l91 -86l106 71l-197 140l-197 -140l106 -71z" />
    <glyph glyph-name="atilde" unicode="&#xe3;" horiz-adv-x="544" 
d="M176 137q0 19 9.5 32t28 20.5t44.5 7.5q39 0 66.5 -9.5t53.5 -28.5v71q-10 11 -33.5 22.5t-55 19t-66.5 7.5q-58 0 -103 -18t-70.5 -51.5t-25.5 -81.5q0 -43 20.5 -74t58.5 -47.5t88 -16.5q48 0 86.5 16.5t61 48t22.5 75.5l-16 56q0 -37 -14 -58t-37.5 -30t-51.5 -9
q-19 0 -34 5.5t-23.5 16t-8.5 26.5zM117 318q11 7 33 16.5t51.5 16.5t62.5 7q38 0 59.5 -17.5t21.5 -46.5v-294h145v324q0 48 -27.5 81t-76 50.5t-110.5 17.5t-116.5 -17t-93.5 -36zM80 599l72 -62q0 8 3.5 20t14 21.5t28.5 9.5q25 0 46.5 -13.5t44 -26.5t49.5 -13
q31 0 58.5 13.5t47.5 33.5t28 38l-71 74q-15 -24 -30.5 -38.5t-34.5 -14.5q-21 0 -36 8t-28.5 18t-30.5 18t-42 8q-31 0 -56.5 -13.5t-41.5 -34.5t-21 -46z" />
    <glyph glyph-name="adieresis" unicode="&#xe4;" horiz-adv-x="544" 
d="M176 137q0 19 9.5 32t28 20.5t44.5 7.5q39 0 66.5 -9.5t53.5 -28.5v71q-10 11 -33.5 22.5t-55 19t-66.5 7.5q-58 0 -103 -18t-70.5 -51.5t-25.5 -81.5q0 -43 20.5 -74t58.5 -47.5t88 -16.5q48 0 86.5 16.5t61 48t22.5 75.5l-16 56q0 -37 -14 -58t-37.5 -30t-51.5 -9
q-19 0 -34 5.5t-23.5 16t-8.5 26.5zM117 318q11 7 33 16.5t51.5 16.5t62.5 7q38 0 59.5 -17.5t21.5 -46.5v-294h145v324q0 48 -27.5 81t-76 50.5t-110.5 17.5t-116.5 -17t-93.5 -36zM310 615q0 -36 25.5 -59t62.5 -23q36 0 62 23t26 59t-26 59t-62 23q-37 0 -62.5 -23
t-25.5 -59zM66 615q0 -36 26 -59t62 -23q37 0 62.5 23t25.5 59t-25.5 59t-62.5 23q-36 0 -62 -23t-26 -59z" />
    <glyph glyph-name="aring" unicode="&#xe5;" horiz-adv-x="544" 
d="M176 137q0 19 9.5 32t28 20.5t44.5 7.5q39 0 66.5 -9.5t53.5 -28.5v71q-10 11 -33.5 22.5t-55 19t-66.5 7.5q-58 0 -103 -18t-70.5 -51.5t-25.5 -81.5q0 -43 20.5 -74t58.5 -47.5t88 -16.5q48 0 86.5 16.5t61 48t22.5 75.5l-16 56q0 -37 -14 -58t-37.5 -30t-51.5 -9
q-19 0 -34 5.5t-23.5 16t-8.5 26.5zM117 318q11 7 33 16.5t51.5 16.5t62.5 7q38 0 59.5 -17.5t21.5 -46.5v-294h145v324q0 48 -27.5 81t-76 50.5t-110.5 17.5t-116.5 -17t-93.5 -36zM151 649q0 -52 36 -84t88 -32t89 32t37 84q0 51 -37 83t-89 32t-88 -32t-36 -83zM229 649
q0 22 13.5 35t32.5 13t33 -13t14 -35q0 -23 -14 -35.5t-33 -12.5t-32.5 12.5t-13.5 35.5z" />
    <glyph glyph-name="ae" unicode="&#xe6;" horiz-adv-x="896" 
d="M217 -10q83 0 137 29.5t70 83.5h-12q26 -58 76 -85.5t128 -27.5q88 0 148.5 33.5t98.5 102.5l-135 33q-16 -29 -46.5 -44.5t-68.5 -15.5q-33 0 -56 13t-35.5 39t-14.5 65l-20 -18h372q1 4 1.5 15.5t0.5 23.5q0 73 -26.5 125t-77 80t-121.5 28q-47 0 -87.5 -12.5
t-71.5 -37t-52 -60.5h12q-7 58 -47 85.5t-114 27.5q-51 0 -102.5 -13t-107.5 -40l51 -102q20 12 45.5 21t52.5 14t49 5q40 0 60.5 -19.5t20.5 -55.5v-59h70q-64 31 -106.5 43t-85.5 12q-59 0 -104 -19t-70 -52.5t-25 -79.5q0 -65 51 -101.5t142 -36.5zM242 89q-34 0 -50 12
t-16 36q0 30 20.5 45t61.5 15q29 0 57 -7.5t51 -21.5l-22 27l5 -62v53q-3 -48 -30 -72.5t-77 -24.5zM507 236q0 43 12 72.5t35 45t56 15.5q29 0 49 -12t31 -35t11 -56v-7.5t-2 -8.5l23 32h-235z" />
    <glyph glyph-name="ccedilla" unicode="&#xe7;" horiz-adv-x="494" 
d="M186 230q0 34 16 61t44.5 43t61.5 16q25 0 51 -8t48.5 -23t36.5 -37v148q-24 17 -60 28.5t-88 11.5q-76 0 -136.5 -30t-95 -83.5t-34.5 -126.5q0 -72 34.5 -126t95 -84t136.5 -30q52 0 88 11.5t60 30.5v147q-14 -22 -35.5 -37t-47 -23.5t-53.5 -8.5q-33 0 -61.5 15
t-44.5 41.5t-16 63.5zM237 61l-87 -195q26 11 50.5 13.5t31.5 2.5q23 0 41.5 -6t18.5 -26q0 -18 -14 -26.5t-40 -8.5q-15 0 -37 5.5t-41 19.5l-46 -68q35 -23 68.5 -31.5t75.5 -8.5q32 0 61.5 12.5t49.5 37t20 59.5q0 33 -14.5 55t-35.5 32.5t-41 10.5q-11 0 -20 -0.5
t-17 -3.5l86 122z" />
    <glyph glyph-name="egrave" unicode="&#xe8;" horiz-adv-x="573" 
d="M117 198h420q2 12 2 22.5v16.5q0 73 -28.5 125t-84 80t-135.5 28q-75 0 -128.5 -24t-85 -67t-41.5 -100q-2 -12 -3 -24t-1 -25q0 -69 30.5 -123.5t89 -85.5t141.5 -31q67 0 113.5 16.5t78.5 47t55 72.5l-135 33q-11 -19 -27 -32.5t-37.5 -20.5t-49.5 -7q-30 0 -54 13
t-38.5 42t-14.5 76l2 24q0 37 13 62.5t35.5 39t53.5 13.5q27 0 45.5 -10.5t29 -29.5t14.5 -47h-260v-84zM126 684l180 -150l85 43l-150 160z" />
    <glyph glyph-name="eacute" unicode="&#xe9;" horiz-adv-x="573" 
d="M117 198h420q2 12 2 22.5v16.5q0 73 -28.5 125t-84 80t-135.5 28q-75 0 -128.5 -24t-85 -67t-41.5 -100q-2 -12 -3 -24t-1 -25q0 -69 30.5 -123.5t89 -85.5t141.5 -31q67 0 113.5 16.5t78.5 47t55 72.5l-135 33q-11 -19 -27 -32.5t-37.5 -20.5t-49.5 -7q-30 0 -54 13
t-38.5 42t-14.5 76l2 24q0 37 13 62.5t35.5 39t53.5 13.5q27 0 45.5 -10.5t29 -29.5t14.5 -47h-260v-84zM463 684l-115 53l-150 -160l85 -43z" />
    <glyph glyph-name="ecircumflex" unicode="&#xea;" horiz-adv-x="573" 
d="M117 198h420q2 12 2 22.5v16.5q0 73 -28.5 125t-84 80t-135.5 28q-75 0 -128.5 -24t-85 -67t-41.5 -100q-2 -12 -3 -24t-1 -25q0 -69 30.5 -123.5t89 -85.5t141.5 -31q67 0 113.5 16.5t78.5 47t55 72.5l-135 33q-11 -19 -27 -32.5t-37.5 -20.5t-49.5 -7q-30 0 -54 13
t-38.5 42t-14.5 76l2 24q0 37 13 62.5t35.5 39t53.5 13.5q27 0 45.5 -10.5t29 -29.5t14.5 -47h-260v-84zM291 616l91 -85l106 71l-197 140l-197 -140l106 -71z" />
    <glyph glyph-name="edieresis" unicode="&#xeb;" horiz-adv-x="573" 
d="M117 198h420q2 12 2 22.5v16.5q0 73 -28.5 125t-84 80t-135.5 28q-75 0 -128.5 -24t-85 -67t-41.5 -100q-2 -12 -3 -24t-1 -25q0 -69 30.5 -123.5t89 -85.5t141.5 -31q67 0 113.5 16.5t78.5 47t55 72.5l-135 33q-11 -19 -27 -32.5t-37.5 -20.5t-49.5 -7q-30 0 -54 13
t-38.5 42t-14.5 76l2 24q0 37 13 62.5t35.5 39t53.5 13.5q27 0 45.5 -10.5t29 -29.5t14.5 -47h-260v-84zM325 612q0 -35 25.5 -58t62.5 -23q36 0 62 23t26 58q0 36 -26 59t-62 23q-37 0 -62.5 -23t-25.5 -59zM81 612q0 -35 26 -58t62 -23q37 0 62.5 23t25.5 58
q0 36 -25.5 59t-62.5 23q-36 0 -62 -23t-26 -59z" />
    <glyph glyph-name="igrave" unicode="&#xec;" horiz-adv-x="276" 
d="M65 460v-460h146v460h-146zM-42 688l180 -150l85 43l-150 160z" />
    <glyph glyph-name="iacute" unicode="&#xed;" horiz-adv-x="276" 
d="M65 460v-460h146v460h-146zM310 688l-116 53l-150 -160l86 -43z" />
    <glyph glyph-name="icircumflex" unicode="&#xee;" horiz-adv-x="276" 
d="M65 460v-460h146v460h-146zM137 620l92 -86l106 71l-198 140l-197 -140l106 -71z" />
    <glyph glyph-name="idieresis" unicode="&#xef;" horiz-adv-x="276" 
d="M65 460v-460h146v460h-146zM172 624q0 -36 26 -59t62 -23t62 23t26 59t-26 58.5t-62 22.5t-62 -22.5t-26 -58.5zM-72 624q0 -36 26 -59t62 -23q37 0 62.5 23t25.5 59t-25.5 58.5t-62.5 22.5q-36 0 -62 -22.5t-26 -58.5z" />
    <glyph glyph-name="eth" unicode="&#xf0;" horiz-adv-x="626" 
d="M310 -16q77 0 137.5 34t95 93.5t34.5 134.5q0 43 -13 90.5t-39 97t-65.5 102.5t-92 109.5t-116.5 114.5l-112 -75q51 -38 95 -77.5t81.5 -82t69.5 -87t57 -93.5l43 -1q-96 129 -224 129q-63 0 -110.5 -28.5t-74 -80t-26.5 -118.5q0 -77 33.5 -136t92.5 -92.5t134 -33.5z
M313 115q-32 0 -56 15t-37.5 41t-13.5 59q0 34 14 60t38 41t55 15t55 -15t38 -41t14 -60q0 -33 -13.5 -59t-37.5 -41t-56 -15zM157 507l348 112l-17 55l-348 -112z" />
    <glyph glyph-name="ntilde" unicode="&#xf1;" 
d="M211 460h-152v-460h152v460zM358 280v-280h157v296q0 85 -39.5 130t-124.5 45q-57 0 -94.5 -26.5t-56.5 -71t-19 -99.5l30 6q0 27 10 45.5t28 29t42 10.5q37 0 52 -22t15 -63zM92 596l71 -62q0 8 4 20t14.5 21.5t28.5 9.5q25 0 46.5 -13t43.5 -26.5t49 -13.5
q32 0 59.5 13.5t47.5 34t28 38.5l-71 74q-15 -24 -31 -38.5t-35 -14.5q-21 0 -36 8t-28.5 18t-30.5 18t-41 8q-32 0 -57 -14t-41 -35t-21 -46z" />
    <glyph glyph-name="ograve" unicode="&#xf2;" horiz-adv-x="589" 
d="M32 230q0 -72 34 -126t94 -84t135 -30t134.5 30t94 84t34.5 126q0 73 -34.5 127t-94 84t-134.5 30t-135 -30t-94 -84t-34 -127zM187 230q0 36 15 62t39 40t54 14q29 0 53.5 -14t39 -40t14.5 -62t-14.5 -61.5t-39 -39.5t-53.5 -14q-30 0 -54 14t-39 39.5t-15 61.5z
M135 688l180 -150l85 43l-150 160z" />
    <glyph glyph-name="oacute" unicode="&#xf3;" horiz-adv-x="589" 
d="M32 230q0 -72 34 -126t94 -84t135 -30t134.5 30t94 84t34.5 126q0 73 -34.5 127t-94 84t-134.5 30t-135 -30t-94 -84t-34 -127zM187 230q0 36 15 62t39 40t54 14q29 0 53.5 -14t39 -40t14.5 -62t-14.5 -61.5t-39 -39.5t-53.5 -14q-30 0 -54 14t-39 39.5t-15 61.5z
M455 688l-116 53l-150 -160l86 -43z" />
    <glyph glyph-name="ocircumflex" unicode="&#xf4;" horiz-adv-x="589" 
d="M32 230q0 -72 34 -126t94 -84t135 -30t134.5 30t94 84t34.5 126q0 73 -34.5 127t-94 84t-134.5 30t-135 -30t-94 -84t-34 -127zM187 230q0 36 15 62t39 40t54 14q29 0 53.5 -14t39 -40t14.5 -62t-14.5 -61.5t-39 -39.5t-53.5 -14q-30 0 -54 14t-39 39.5t-15 61.5z
M295 624l91 -86l106 71l-197 140l-198 -140l106 -71z" />
    <glyph glyph-name="otilde" unicode="&#xf5;" horiz-adv-x="589" 
d="M32 230q0 -72 34 -126t94 -84t135 -30t134.5 30t94 84t34.5 126q0 73 -34.5 127t-94 84t-134.5 30t-135 -30t-94 -84t-34 -127zM187 230q0 36 15 62t39 40t54 14q29 0 53.5 -14t39 -40t14.5 -62t-14.5 -61.5t-39 -39.5t-53.5 -14q-30 0 -54 14t-39 39.5t-15 61.5zM99 596
l71 -62q0 8 4 20t14 21.5t29 9.5q25 0 46 -13t44 -26.5t50 -13.5q31 0 58.5 13.5t47.5 34t28 38.5l-71 74q-15 -24 -30.5 -38.5t-34.5 -14.5q-22 0 -36.5 8t-28 18t-30.5 18t-42 8q-31 0 -56.5 -14t-41.5 -35t-21 -46z" />
    <glyph glyph-name="odieresis" unicode="&#xf6;" horiz-adv-x="589" 
d="M32 230q0 -72 34 -126t94 -84t135 -30t134.5 30t94 84t34.5 126q0 73 -34.5 127t-94 84t-134.5 30t-135 -30t-94 -84t-34 -127zM187 230q0 36 15 62t39 40t54 14q29 0 53.5 -14t39 -40t14.5 -62t-14.5 -61.5t-39 -39.5t-53.5 -14q-30 0 -54 14t-39 39.5t-15 61.5z
M329 624q0 -36 25.5 -59t61.5 -23q37 0 62.5 23t25.5 59t-25.5 58.5t-62.5 22.5q-36 0 -61.5 -22.5t-25.5 -58.5zM85 624q0 -36 26 -59t62 -23q37 0 62.5 23t25.5 59t-25.5 58.5t-62.5 22.5q-36 0 -62 -22.5t-26 -58.5z" />
    <glyph glyph-name="divide" unicode="&#xf7;" horiz-adv-x="640" 
d="M225 553q0 -38 27 -65.5t67 -27.5q42 0 68 27.5t26 65.5q0 37 -26 64.5t-68 27.5q-40 0 -67 -27.5t-27 -64.5zM225 98q0 -38 27 -65t67 -27q42 0 68 27t26 65t-26 65t-68 27q-40 0 -67 -27t-27 -65zM26 259h587v136h-587v-136z" />
    <glyph glyph-name="oslash" unicode="&#xf8;" horiz-adv-x="546" 
d="M32 230q0 -75 35 -129t94.5 -82.5t133.5 -28.5t133.5 28.5t94.5 82.5t35 129q0 76 -35 129.5t-94.5 82t-133.5 28.5t-133.5 -28.5t-94.5 -82t-35 -129.5zM175 230q0 36 16.5 63.5t43.5 43t60 15.5q32 0 59.5 -15.5t43.5 -43t16 -63.5q0 -39 -16 -66t-43.5 -41.5
t-59.5 -14.5q-33 0 -60 14.5t-43.5 41.5t-16.5 66zM456 506l-390 -524l57 -32l390 524z" />
    <glyph glyph-name="ugrave" unicode="&#xf9;" 
d="M364 0h151v460h-151v-460zM217 180v280h-158v-296q0 -85 39.5 -130t125.5 -45q57 0 94.5 26.5t56.5 71.5t19 99l-30 -6q0 -27 -10 -45.5t-27.5 -29t-42.5 -10.5q-37 0 -52 22t-15 63zM142 688l180 -150l86 43l-150 160z" />
    <glyph glyph-name="uacute" unicode="&#xfa;" 
d="M364 0h151v460h-151v-460zM217 180v280h-158v-296q0 -85 39.5 -130t125.5 -45q57 0 94.5 26.5t56.5 71.5t19 99l-30 -6q0 -27 -10 -45.5t-27.5 -29t-42.5 -10.5q-37 0 -52 22t-15 63zM432 688l-115 53l-150 -160l85 -43z" />
    <glyph glyph-name="ucircumflex" unicode="&#xfb;" 
d="M364 0h151v460h-151v-460zM217 180v280h-158v-296q0 -85 39.5 -130t125.5 -45q57 0 94.5 26.5t56.5 71.5t19 99l-30 -6q0 -27 -10 -45.5t-27.5 -29t-42.5 -10.5q-37 0 -52 22t-15 63zM287 624l91 -86l106 71l-197 140l-197 -140l105 -71z" />
    <glyph glyph-name="udieresis" unicode="&#xfc;" 
d="M364 0h151v460h-151v-460zM217 180v280h-158v-296q0 -85 39.5 -130t125.5 -45q57 0 94.5 26.5t56.5 71.5t19 99l-30 -6q0 -27 -10 -45.5t-27.5 -29t-42.5 -10.5q-37 0 -52 22t-15 63zM322 620q0 -36 25.5 -59t61.5 -23q37 0 63 23t26 59t-26 59t-63 23q-36 0 -61.5 -23
t-25.5 -59zM78 620q0 -36 25.5 -59t62.5 -23q36 0 62 23t26 59t-26 59t-62 23q-37 0 -62.5 -23t-25.5 -59z" />
    <glyph glyph-name="yacute" unicode="&#xfd;" horiz-adv-x="521" 
d="M530 460h-155l-147 -368l78 -1l-149 369h-166l199 -423l-112 -257h152zM421 688l-115 53l-150 -160l85 -43z" />
    <glyph glyph-name="thorn" unicode="&#xfe;" horiz-adv-x="617" 
d="M209 -220v1000h-151v-1000h151zM585 230q0 78 -31.5 131t-81 81t-106.5 28t-102 -29t-71 -82.5t-26 -128.5q0 -74 26 -128t71 -83t102 -29t106.5 28t81 81.5t31.5 130.5zM426 230q0 -36 -15 -62.5t-40 -41t-55 -14.5q-26 0 -50.5 14t-40.5 40.5t-16 63.5t16 63.5
t40.5 40.5t50.5 14q30 0 55 -14.5t40 -41t15 -62.5z" />
    <glyph glyph-name="ydieresis" unicode="&#xff;" horiz-adv-x="521" 
d="M530 460h-155l-147 -368l78 -1l-149 369h-166l199 -423l-112 -257h152zM294 612q0 -35 26 -58t62 -23q37 0 62.5 23t25.5 58q0 36 -25.5 59t-62.5 23q-36 0 -62 -23t-26 -59zM51 612q0 -35 25.5 -58t62.5 -23q36 0 62 23t26 58q0 36 -26 59t-62 23q-37 0 -62.5 -23
t-25.5 -59z" />
    <glyph glyph-name="Amacron" unicode="&#x100;" horiz-adv-x="735" 
d="M184 135h370l-11 129h-347zM367 443l99 -227l-6 -43l84 -173h192l-369 744l-368 -744h191l87 180l-8 37zM182 804h371v131h-371v-131z" />
    <glyph glyph-name="amacron" unicode="&#x101;" horiz-adv-x="544" 
d="M176 137q0 19 9.5 32t28 20.5t44.5 7.5q39 0 66.5 -9.5t53.5 -28.5v71q-10 11 -33.5 22.5t-55 19t-66.5 7.5q-58 0 -103 -18t-70.5 -51.5t-25.5 -81.5q0 -43 20.5 -74t58.5 -47.5t88 -16.5q48 0 86.5 16.5t61 48t22.5 75.5l-16 56q0 -37 -14 -58t-37.5 -30t-51.5 -9
q-19 0 -34 5.5t-23.5 16t-8.5 26.5zM117 318q11 7 33 16.5t51.5 16.5t62.5 7q38 0 59.5 -17.5t21.5 -46.5v-294h145v324q0 48 -27.5 81t-76 50.5t-110.5 17.5t-116.5 -17t-93.5 -36zM90 541h372v131h-372v-131z" />
    <glyph glyph-name="Abreve" unicode="&#x102;" horiz-adv-x="735" 
d="M184 135h370l-11 129h-347zM367 443l99 -227l-6 -43l84 -173h192l-369 744l-368 -744h191l87 180l-8 37zM203 951q0 -41 19 -74.5t56 -53t89 -19.5q53 0 89.5 19.5t55.5 53t19 74.5h-98q0 -18 -8.5 -31.5t-23 -21t-34.5 -7.5q-19 0 -33.5 7.5t-23 21t-8.5 31.5h-99z" />
    <glyph glyph-name="abreve" unicode="&#x103;" horiz-adv-x="544" 
d="M176 137q0 19 9.5 32t28 20.5t44.5 7.5q39 0 66.5 -9.5t53.5 -28.5v71q-10 11 -33.5 22.5t-55 19t-66.5 7.5q-58 0 -103 -18t-70.5 -51.5t-25.5 -81.5q0 -43 20.5 -74t58.5 -47.5t88 -16.5q48 0 86.5 16.5t61 48t22.5 75.5l-16 56q0 -37 -14 -58t-37.5 -30t-51.5 -9
q-19 0 -34 5.5t-23.5 16t-8.5 26.5zM117 318q11 7 33 16.5t51.5 16.5t62.5 7q38 0 59.5 -17.5t21.5 -46.5v-294h145v324q0 48 -27.5 81t-76 50.5t-110.5 17.5t-116.5 -17t-93.5 -36zM112 679q0 -40 19 -73.5t56 -53t89 -19.5q53 0 89.5 19.5t55.5 53t19 73.5h-99
q0 -17 -8 -30.5t-23 -21t-34 -7.5q-20 0 -34.5 7.5t-22.5 21t-8 30.5h-99z" />
    <glyph glyph-name="Aogonek" unicode="&#x104;" horiz-adv-x="735" 
d="M184 135h370l-11 129h-347zM367 443l99 -227l-6 -43l84 -173h192l-369 744l-368 -744h191l87 180l-8 37zM691 -111q-10 -10 -22.5 -15t-27.5 -5q-18 0 -27 9.5t-9 27.5q0 16 9.5 32t27.5 32t44 30l-41 25q-35 -18 -66.5 -39.5t-51.5 -47t-20 -58.5q0 -32 15.5 -54.5
t42 -34t59.5 -11.5q41 0 65 12.5t35 27.5z" />
    <glyph glyph-name="aogonek" unicode="&#x105;" horiz-adv-x="544" 
d="M176 137q0 19 9.5 32t28 20.5t44.5 7.5q39 0 66.5 -9.5t53.5 -28.5v71q-10 11 -33.5 22.5t-55 19t-66.5 7.5q-60 0 -105 -18t-69.5 -51t-24.5 -79q0 -45 21.5 -76.5t59.5 -48t86 -16.5t86.5 16.5t61 48t22.5 75.5l-16 56q0 -37 -14 -58t-37.5 -30t-51.5 -9q-18 0 -33 5.5
t-24 16t-9 26.5zM117 318q11 7 33 16.5t51.5 16.5t62.5 7q38 0 59.5 -17.5t21.5 -46.5v-294h145v324q0 48 -27.5 81t-76 50.5t-110.5 17.5t-116.5 -17t-93.5 -36zM464 -111q-10 -10 -22.5 -15t-27.5 -5q-17 0 -26 9.5t-9 27.5q0 16 9 32t27 32t44 30l-41 25
q-35 -18 -66.5 -39.5t-51.5 -47t-20 -58.5q0 -32 15.5 -54.5t42 -34t59.5 -11.5q41 0 65 12.5t35 27.5z" />
    <glyph glyph-name="Cacute" unicode="&#x106;" horiz-adv-x="701" 
d="M218 350q0 65 29 111t76.5 70t104.5 24q50 0 88 -12.5t68 -34t53 -45.5v182q-42 33 -92 52t-127 19q-84 0 -155 -26t-122 -75t-79 -116t-28 -149t28 -149t79 -116t122 -75t155 -26q77 0 127 19t92 52v182q-23 -24 -53 -45t-68 -34t-88 -13q-57 0 -104.5 24t-76.5 70.5
t-29 110.5zM548 926l-115 53l-150 -160l85 -43z" />
    <glyph glyph-name="cacute" unicode="&#x107;" horiz-adv-x="494" 
d="M186 230q0 34 16 61t44.5 43t61.5 16q25 0 51 -8t48.5 -23t36.5 -37v148q-24 17 -60 28.5t-88 11.5q-76 0 -136.5 -30t-95 -83.5t-34.5 -126.5q0 -72 34.5 -126t95 -84t136.5 -30q52 0 88 11.5t60 30.5v147q-14 -22 -35.5 -37t-47 -23.5t-53.5 -8.5q-33 0 -61.5 15
t-44.5 41.5t-16 63.5zM426 681l-115 52l-150 -160l85 -42z" />
    <glyph glyph-name="Ccircumflex" unicode="&#x108;" horiz-adv-x="701" 
d="M218 350q0 65 29 111t76.5 70t104.5 24q50 0 88 -12.5t68 -34t53 -45.5v182q-42 33 -92 52t-127 19q-84 0 -155 -26t-122 -75t-79 -116t-28 -149t28 -149t79 -116t122 -75t155 -26q77 0 127 19t92 52v182q-23 -24 -53 -45t-68 -34t-88 -13q-57 0 -104.5 24t-76.5 70.5
t-29 110.5zM418 862l91 -86l106 71l-197 140l-197 -140l106 -71z" />
    <glyph glyph-name="ccircumflex" unicode="&#x109;" horiz-adv-x="494" 
d="M186 230q0 34 16 61t44.5 43t61.5 16q25 0 51 -8t48.5 -23t36.5 -37v148q-24 17 -60 28.5t-88 11.5q-76 0 -136.5 -30t-95 -83.5t-34.5 -126.5q0 -72 34.5 -126t95 -84t136.5 -30q52 0 88 11.5t60 30.5v147q-14 -22 -35.5 -37t-47 -23.5t-53.5 -8.5q-33 0 -61.5 15
t-44.5 41.5t-16 63.5zM265 616l91 -85l106 71l-197 140l-197 -140l106 -71z" />
    <glyph glyph-name="Cdotaccent" unicode="&#x10a;" horiz-adv-x="701" 
d="M218 350q0 65 29 111t76.5 70t104.5 24q50 0 88 -12.5t68 -34t53 -45.5v182q-42 33 -92 52t-127 19q-84 0 -155 -26t-122 -75t-79 -116t-28 -149t28 -149t79 -116t122 -75t155 -26q77 0 127 19t92 52v182q-23 -24 -53 -45t-68 -34t-88 -13q-57 0 -104.5 24t-76.5 70.5
t-29 110.5zM305 858q0 -36 26 -59t62 -23q37 0 62.5 23t25.5 59t-25.5 59t-62.5 23q-36 0 -62 -23t-26 -59z" />
    <glyph glyph-name="cdotaccent" unicode="&#x10b;" horiz-adv-x="494" 
d="M186 230q0 34 16 61t44.5 43t61.5 16q25 0 51 -8t48.5 -23t36.5 -37v148q-24 17 -60 28.5t-88 11.5q-76 0 -136.5 -30t-95 -83.5t-34.5 -126.5q0 -72 34.5 -126t95 -84t136.5 -30q52 0 88 11.5t60 30.5v147q-14 -22 -35.5 -37t-47 -23.5t-53.5 -8.5q-33 0 -61.5 15
t-44.5 41.5t-16 63.5zM183 619q0 -36 26 -59t62 -23q37 0 62.5 23t25.5 59t-25.5 58.5t-62.5 22.5q-36 0 -62 -22.5t-26 -58.5z" />
    <glyph glyph-name="Ccaron" unicode="&#x10c;" horiz-adv-x="701" 
d="M218 350q0 65 29 111t76.5 70t104.5 24q50 0 88 -12.5t68 -34t53 -45.5v182q-42 33 -92 52t-127 19q-84 0 -155 -26t-122 -75t-79 -116t-28 -149t28 -149t79 -116t122 -75t155 -26q77 0 127 19t92 52v182q-23 -24 -53 -45t-68 -34t-88 -13q-57 0 -104.5 24t-76.5 70.5
t-29 110.5zM418 902l-91 85l-106 -71l197 -140l197 140l-106 71z" />
    <glyph glyph-name="ccaron" unicode="&#x10d;" horiz-adv-x="494" 
d="M186 230q0 34 16 61t44.5 43t61.5 16q25 0 51 -8t48.5 -23t36.5 -37v148q-24 17 -60 28.5t-88 11.5q-76 0 -136.5 -30t-95 -83.5t-34.5 -126.5q0 -72 34.5 -126t95 -84t136.5 -30q52 0 88 11.5t60 30.5v147q-14 -22 -35.5 -37t-47 -23.5t-53.5 -8.5q-33 0 -61.5 15
t-44.5 41.5t-16 63.5zM265 656l-91 86l-106 -71l197 -140l197 140l-106 71z" />
    <glyph glyph-name="Dcaron" unicode="&#x10e;" horiz-adv-x="733" 
d="M74 700v-700h174v700h-174zM324 0q115 0 199 43t130 121.5t46 185.5q0 108 -46 186t-130 121t-199 43h-138v-150h132q40 0 77.5 -10t66 -33t45.5 -61.5t17 -95.5t-17 -95.5t-45.5 -61.5t-66 -33t-77.5 -10h-132v-150h138zM375 902l-91 85l-106 -71l197 -140l198 140
l-106 71z" />
    <glyph glyph-name="dcaron" unicode="&#x10f;" horiz-adv-x="617" 
d="M408 780v-780h151v780h-151zM32 230q0 -77 31.5 -130.5t81.5 -81.5t106 -28q58 0 102.5 29t70.5 83t26 128q0 75 -26 128.5t-70.5 82.5t-102.5 29q-56 0 -106 -28t-81.5 -81t-31.5 -131zM191 230q0 36 15 62.5t40 41t55 14.5q26 0 50.5 -14t40.5 -40.5t16 -63.5
t-16 -63.5t-40.5 -40.5t-50.5 -14q-30 0 -55 14.5t-40 41t-15 62.5zM677 780l-88 -259l114 -23l125 250z" />
    <glyph glyph-name="Dcroat" unicode="&#x110;" horiz-adv-x="733" 
d="M5 298h343v99h-343v-99zM74 700v-700h174v700h-174zM324 0q115 0 199 43t130 121.5t46 185.5q0 108 -46 186t-130 121t-199 43h-138v-150h132q40 0 77.5 -10t66 -33t45.5 -61.5t17 -95.5t-17 -95.5t-45.5 -61.5t-66 -33t-77.5 -10h-132v-150h138z" />
    <glyph glyph-name="dcroat" unicode="&#x111;" horiz-adv-x="617" 
d="M295 565h356v100h-356v-100zM408 780v-780h151v780h-151zM32 230q0 -77 31.5 -130.5t81.5 -81.5t106 -28q58 0 102.5 29t70.5 83t26 128q0 75 -26 128.5t-70.5 82.5t-102.5 29q-56 0 -106 -28t-81.5 -81t-31.5 -131zM191 230q0 36 15 62.5t40 41t55 14.5q19 0 38 -7.5
t34.5 -23t25 -37.5t9.5 -50t-9.5 -50t-25 -37.5t-34.5 -23t-38 -7.5q-30 0 -55 14.5t-40 41t-15 62.5z" />
    <glyph glyph-name="Emacron" unicode="&#x112;" horiz-adv-x="603" 
d="M186 0h353v139h-353v-139zM186 561h353v139h-353v-139zM186 300h333v136h-333v-136zM74 700v-700h162v700h-162zM121 776h371v131h-371v-131z" />
    <glyph glyph-name="emacron" unicode="&#x113;" horiz-adv-x="573" 
d="M117 198h420q2 12 2 22.5v16.5q0 73 -28.5 125t-84 80t-135.5 28q-75 0 -128.5 -24t-85 -67t-41.5 -100q-2 -12 -3 -24t-1 -25q0 -69 30.5 -123.5t89 -85.5t141.5 -31q67 0 113.5 16.5t78.5 47t55 72.5l-135 33q-11 -19 -27 -32.5t-37.5 -20.5t-49.5 -7q-30 0 -54 13
t-38.5 42t-14.5 76l2 24q0 37 13 62.5t35.5 39t53.5 13.5q27 0 45.5 -10.5t29 -29.5t14.5 -47h-260v-84zM105 531h372v131h-372v-131z" />
    <glyph glyph-name="Ebreve" unicode="&#x114;" horiz-adv-x="603" 
d="M186 0h353v139h-353v-139zM186 561h353v139h-353v-139zM186 300h333v136h-333v-136zM74 700v-700h162v700h-162zM142 922q0 -40 19 -73.5t56 -53t89 -19.5q53 0 89.5 19.5t55.5 53t19 73.5h-99q0 -17 -8 -30.5t-22.5 -21t-34.5 -7.5q-19 0 -34 7.5t-23 21t-8 30.5h-99z
" />
    <glyph glyph-name="ebreve" unicode="&#x115;" horiz-adv-x="573" 
d="M117 198h420q2 12 2 22.5v16.5q0 73 -28.5 125t-84 80t-135.5 28q-75 0 -128.5 -24t-85 -67t-41.5 -100q-2 -12 -3 -24t-1 -25q0 -69 30.5 -123.5t89 -85.5t141.5 -31q67 0 113.5 16.5t78.5 47t55 72.5l-135 33q-11 -19 -27 -32.5t-37.5 -20.5t-49.5 -7q-30 0 -54 13
t-38.5 42t-14.5 76l2 24q0 37 13 62.5t35.5 39t53.5 13.5q27 0 45.5 -10.5t29 -29.5t14.5 -47h-260v-84zM127 677q0 -40 19 -73.5t56 -53t89 -19.5q53 0 89.5 19.5t55.5 53t19 73.5h-99q0 -18 -8 -31t-23 -21t-34 -8q-20 0 -34.5 8t-22.5 21t-8 31h-99z" />
    <glyph glyph-name="Edotaccent" unicode="&#x116;" horiz-adv-x="603" 
d="M186 0h353v139h-353v-139zM186 561h353v139h-353v-139zM186 300h333v136h-333v-136zM74 700v-700h162v700h-162zM218 858q0 -36 26 -59t62 -23q37 0 62.5 23t25.5 59t-25.5 59t-62.5 23q-36 0 -62 -23t-26 -59z" />
    <glyph glyph-name="edotaccent" unicode="&#x117;" horiz-adv-x="573" 
d="M117 198h420q2 12 2 22.5v16.5q0 73 -28.5 125t-84 80t-135.5 28q-75 0 -128.5 -24t-85 -67t-41.5 -100q-2 -12 -3 -24t-1 -25q0 -69 30.5 -123.5t89 -85.5t141.5 -31q67 0 113.5 16.5t78.5 47t55 72.5l-135 33q-11 -19 -27 -32.5t-37.5 -20.5t-49.5 -7q-30 0 -54 13
t-38.5 42t-14.5 76l2 24q0 37 13 62.5t35.5 39t53.5 13.5q27 0 45.5 -10.5t29 -29.5t14.5 -47h-260v-84zM203 612q0 -35 26 -58t62 -23q37 0 62.5 23t25.5 58q0 36 -25.5 59t-62.5 23q-36 0 -62 -23t-26 -59z" />
    <glyph glyph-name="Eogonek" unicode="&#x118;" horiz-adv-x="603" 
d="M186 0h353v139h-353v-139zM186 561h353v139h-353v-139zM186 300h333v136h-333v-136zM74 700v-700h162v700h-162zM399 -111q-10 -10 -22.5 -15t-27.5 -5q-17 0 -26 9.5t-9 27.5q0 16 9 32t27 32t44 30l-41 25q-35 -18 -66.5 -39.5t-51.5 -47t-20 -58.5q0 -32 15.5 -54.5
t42 -34t59.5 -11.5q41 0 65 12.5t35 27.5z" />
    <glyph glyph-name="eogonek" unicode="&#x119;" horiz-adv-x="573" 
d="M117 198h420q2 12 2 22.5v16.5q0 73 -28.5 125t-84 80t-135.5 28q-75 0 -128.5 -24t-85 -67t-41.5 -100q-2 -12 -3 -24t-1 -25q0 -69 30.5 -123.5t89 -85.5t141.5 -31q50 0 84.5 11t61.5 30.5t50.5 44t50.5 50.5l-135 33q-11 -19 -27 -32.5t-37.5 -20.5t-49.5 -7
q-30 0 -54 13t-38.5 42t-14.5 76l2 24q0 37 13 62.5t35.5 39t53.5 13.5q27 0 45.5 -10.5t29 -29.5t14.5 -47h-260v-84zM518 -34q-10 -10 -22.5 -15t-27.5 -5q-18 0 -27 9.5t-9 24.5q0 16 10 32t34 42.5t64 71.5l-68 -24q-25 -16 -49.5 -32.5t-44.5 -34.5t-32 -39t-12 -45
q0 -32 16.5 -53t42.5 -31t54 -10q41 0 67 12.5t37 27.5z" />
    <glyph glyph-name="Ecaron" unicode="&#x11a;" horiz-adv-x="603" 
d="M186 0h353v139h-353v-139zM186 561h353v139h-353v-139zM186 300h333v136h-333v-136zM74 700v-700h162v700h-162zM306 902l-91 85l-106 -71l197 -140l197 140l-106 71z" />
    <glyph glyph-name="ecaron" unicode="&#x11b;" horiz-adv-x="573" 
d="M117 198h420q2 12 2 22.5v16.5q0 73 -28.5 125t-84 80t-135.5 28q-75 0 -128.5 -24t-85 -67t-41.5 -100q-2 -12 -3 -24t-1 -25q0 -69 30.5 -123.5t89 -85.5t141.5 -31q67 0 113.5 16.5t78.5 47t55 72.5l-135 33q-11 -19 -27 -32.5t-37.5 -20.5t-49.5 -7q-30 0 -54 13
t-38.5 42t-14.5 76l2 24q0 37 13 62.5t35.5 39t53.5 13.5q27 0 45.5 -10.5t29 -29.5t14.5 -47h-260v-84zM291 656l-91 86l-106 -71l197 -140l197 140l-106 71z" />
    <glyph glyph-name="Gcircumflex" unicode="&#x11c;" horiz-adv-x="814" 
d="M421 253h186q-9 -27 -24.5 -50.5t-37.5 -41t-53 -27t-69 -9.5q-62 0 -109.5 27.5t-75 78t-27.5 119.5q0 70 28.5 118.5t76.5 74.5t107 26q61 0 101.5 -27.5t64.5 -69.5l150 78q-33 49 -78.5 86.5t-104.5 58.5t-133 21q-83 0 -154 -26t-124 -74t-82 -115.5t-29 -150.5
t28.5 -151.5t79.5 -118t121 -76t154 -26.5q89 0 158 31.5t115 87.5t68 129t17 157h-354v-130zM423 862l91 -86l106 71l-197 140l-197 -140l106 -71z" />
    <glyph glyph-name="gcircumflex" unicode="&#x11d;" horiz-adv-x="610" 
d="M42 -33q5 -61 33 -107.5t83.5 -72.5t140.5 -26q71 0 128 25.5t91.5 80.5t34.5 143v450h-145v-450q0 -42 -15.5 -70.5t-41.5 -43t-58 -14.5q-29 0 -52 9.5t-36.5 28.5t-16.5 47h-146zM32 236q0 -77 31.5 -129t81.5 -78.5t106 -26.5q58 0 102.5 27.5t70.5 80t26 126.5
q0 75 -26 127t-70.5 79.5t-102.5 27.5q-56 0 -106 -26t-81.5 -78t-31.5 -130zM191 236q0 36 15 61t40 38t55 13q19 0 38 -7t34.5 -21t25 -35t9.5 -49q0 -37 -16 -62t-40.5 -37.5t-50.5 -12.5q-30 0 -55 13t-40 38.5t-15 60.5zM319 616l91 -85l106 71l-197 140l-197 -140
l106 -71z" />
    <glyph glyph-name="Gbreve" unicode="&#x11e;" horiz-adv-x="814" 
d="M421 253h186q-9 -27 -24.5 -50.5t-37.5 -41t-53 -27t-69 -9.5q-62 0 -109.5 27.5t-75 78t-27.5 119.5q0 70 28.5 118.5t76.5 74.5t107 26q61 0 101.5 -27.5t64.5 -69.5l150 78q-33 49 -78.5 86.5t-104.5 58.5t-133 21q-83 0 -154 -26t-124 -74t-82 -115.5t-29 -150.5
t28.5 -151.5t79.5 -118t121 -76t154 -26.5q89 0 158 31.5t115 87.5t68 129t17 157h-354v-130zM259 922q0 -40 19 -73.5t56 -53t89 -19.5q53 0 89.5 19.5t55.5 53t19 73.5h-99q0 -17 -8 -30.5t-23 -21t-34 -7.5q-20 0 -34.5 7.5t-22.5 21t-8 30.5h-99z" />
    <glyph glyph-name="gbreve" unicode="&#x11f;" horiz-adv-x="610" 
d="M42 -33q5 -61 33 -107.5t83.5 -72.5t140.5 -26q71 0 128 25.5t91.5 80.5t34.5 143v450h-145v-450q0 -42 -15.5 -70.5t-41.5 -43t-58 -14.5q-29 0 -52 9.5t-36.5 28.5t-16.5 47h-146zM32 236q0 -77 31.5 -129t81.5 -78.5t106 -26.5q58 0 102.5 27.5t70.5 80t26 126.5
q0 75 -26 127t-70.5 79.5t-102.5 27.5q-56 0 -106 -26t-81.5 -78t-31.5 -130zM191 236q0 36 15 61t40 38t55 13q19 0 38 -7t34.5 -21t25 -35t9.5 -49q0 -37 -16 -62t-40.5 -37.5t-50.5 -12.5q-30 0 -55 13t-40 38.5t-15 60.5zM155 677q0 -40 19 -73.5t56 -53t89 -19.5
q53 0 89.5 19.5t55.5 53t19 73.5h-99q0 -18 -8 -31t-23 -21t-34 -8q-20 0 -34.5 8t-22.5 21t-8 31h-99z" />
    <glyph glyph-name="Gdotaccent" unicode="&#x120;" horiz-adv-x="814" 
d="M421 253h186q-9 -27 -24.5 -50.5t-37.5 -41t-53 -27t-69 -9.5q-62 0 -109.5 27.5t-75 78t-27.5 119.5q0 70 28.5 118.5t76.5 74.5t107 26q61 0 101.5 -27.5t64.5 -69.5l150 78q-33 49 -78.5 86.5t-104.5 58.5t-133 21q-83 0 -154 -26t-124 -74t-82 -115.5t-29 -150.5
t28.5 -151.5t79.5 -118t121 -76t154 -26.5q89 0 158 31.5t115 87.5t68 129t17 157h-354v-130zM335 858q0 -36 26 -59t62 -23q37 0 62.5 23t25.5 59t-25.5 59t-62.5 23q-36 0 -62 -23t-26 -59z" />
    <glyph glyph-name="gdotaccent" unicode="&#x121;" horiz-adv-x="610" 
d="M42 -33q5 -61 33 -107.5t83.5 -72.5t140.5 -26q71 0 128 25.5t91.5 80.5t34.5 143v450h-145v-450q0 -42 -15.5 -70.5t-41.5 -43t-58 -14.5q-29 0 -52 9.5t-36.5 28.5t-16.5 47h-146zM32 236q0 -77 31.5 -129t81.5 -78.5t106 -26.5q58 0 102.5 27.5t70.5 80t26 126.5
q0 75 -26 127t-70.5 79.5t-102.5 27.5q-56 0 -106 -26t-81.5 -78t-31.5 -130zM191 236q0 36 15 61t40 38t55 13q19 0 38 -7t34.5 -21t25 -35t9.5 -49q0 -37 -16 -62t-40.5 -37.5t-50.5 -12.5q-30 0 -55 13t-40 38.5t-15 60.5zM220 627q0 -35 26 -58t62 -23q37 0 62.5 23
t25.5 58q0 37 -25.5 59.5t-62.5 22.5q-36 0 -62 -22.5t-26 -59.5z" />
    <glyph glyph-name="uni0122" unicode="&#x122;" horiz-adv-x="814" 
d="M421 253h186q-9 -27 -24.5 -50.5t-37.5 -41t-53 -27t-69 -9.5q-62 0 -109.5 27.5t-75 78t-27.5 119.5q0 70 28.5 118.5t76.5 74.5t107 26q61 0 101.5 -27.5t64.5 -69.5l150 78q-33 49 -78.5 86.5t-104.5 58.5t-133 21q-83 0 -154 -26t-124 -74t-82 -115.5t-29 -150.5
t28.5 -151.5t79.5 -118t121 -76t154 -26.5q89 0 158 31.5t115 87.5t68 129t17 157h-354v-130zM354 -82l-88 -259l114 -24l126 250z" />
    <glyph glyph-name="uni0123" unicode="&#x123;" horiz-adv-x="570" 
d="M42 -33q5 -61 33 -107.5t83.5 -72.5t140.5 -26q71 0 128 25.5t91.5 80.5t34.5 143v450h-145v-450q0 -42 -15.5 -70.5t-41.5 -43t-58 -14.5q-29 0 -52 9.5t-36.5 28.5t-16.5 47h-146zM32 236q0 -77 31.5 -129t81.5 -78.5t106 -26.5q58 0 102.5 27.5t70.5 80t26 126.5
q0 75 -26 127t-70.5 79.5t-102.5 27.5q-56 0 -106 -26t-81.5 -78t-31.5 -130zM191 236q0 36 15 61t40 38t55 13q19 0 38 -7t34.5 -21t25 -35t9.5 -49q0 -37 -16 -62t-40.5 -37.5t-50.5 -12.5q-30 0 -55 13t-40 38.5t-15 60.5zM310 542l126 242l-108 41l-163 -228z" />
    <glyph glyph-name="Hcircumflex" unicode="&#x124;" horiz-adv-x="786" 
d="M121 293h529v152h-529v-152zM544 700v-700h169v700h-169zM74 700v-700h169v700h-169zM393 862l92 -86l106 71l-198 140l-197 -140l106 -71z" />
    <glyph glyph-name="hcircumflex" unicode="&#x125;" horiz-adv-x="568" 
d="M211 780h-152v-780h152v780zM358 280v-280h151v302q0 57 -16 96t-50.5 59t-91.5 20t-94.5 -26.5t-56.5 -71t-19 -99.5h30q0 27 10 45.5t28 29t42 10.5q37 0 52 -22t15 -63zM138 926l92 -86l105 71l-197 140l-197 -140l106 -71z" />
    <glyph glyph-name="Hbar" unicode="&#x126;" horiz-adv-x="786" 
d="M121 293h529v152h-529v-152zM544 700v-700h169v700h-169zM74 700v-700h169v700h-169zM5 537h776v106h-776v-106z" />
    <glyph glyph-name="hbar" unicode="&#x127;" horiz-adv-x="568" 
d="M211 780h-152v-780h152v780zM358 280v-280h151v302q0 57 -16 96t-50.5 59t-91.5 20t-93.5 -26.5t-54.5 -71t-18 -99.5h26q0 27 10 45.5t28 29t42 10.5q37 0 52 -22t15 -63zM5 597h331v131h-331v-131z" />
    <glyph glyph-name="Itilde" unicode="&#x128;" horiz-adv-x="320" 
d="M74 700v-700h172v700h-172zM-36 842l71 -62q0 8 4 20t14.5 21.5t29.5 9.5q25 0 46 -13.5t43.5 -26.5t49.5 -13q31 0 59 13.5t47.5 33.5t27.5 38l-71 74q-15 -24 -30.5 -38.5t-34.5 -14.5q-22 0 -36.5 8t-28 18t-30.5 18t-42 8q-31 0 -56.5 -13.5t-41.5 -34.5t-21 -46z
" />
    <glyph glyph-name="itilde" unicode="&#x129;" horiz-adv-x="276" 
d="M65 460v-460h146v460h-146zM-58 596l71 -62q0 8 4 20t14.5 21.5t29.5 9.5q24 0 45.5 -13t44 -26.5t49.5 -13.5q31 0 58.5 13.5t47.5 34t28 38.5l-71 74q-15 -24 -31 -38.5t-35 -14.5q-21 0 -36 8t-28 18t-30 18t-42 8q-31 0 -56.5 -14t-41.5 -35t-21 -46z" />
    <glyph glyph-name="Imacron" unicode="&#x12a;" horiz-adv-x="320" 
d="M74 700v-700h172v700h-172zM-26 776h372v131h-372v-131z" />
    <glyph glyph-name="imacron" unicode="&#x12b;" horiz-adv-x="276" 
d="M65 460v-460h146v460h-146zM-48 531h372v131h-372v-131z" />
    <glyph glyph-name="Ibreve" unicode="&#x12c;" horiz-adv-x="320" 
d="M74 700v-700h172v700h-172zM-5 922q0 -40 19.5 -73.5t56.5 -53t89 -19.5q53 0 89.5 19.5t55.5 53t19 73.5h-99q0 -17 -8.5 -30.5t-23 -21t-33.5 -7.5q-20 0 -34.5 7.5t-23 21t-8.5 30.5h-99z" />
    <glyph glyph-name="ibreve" unicode="&#x12d;" horiz-adv-x="276" 
d="M65 460v-460h146v460h-146zM-27 677q0 -40 19 -73.5t56 -53t89 -19.5q53 0 90 19.5t56 53t19 73.5h-99q0 -18 -8.5 -31t-23 -21t-34.5 -8q-19 0 -33.5 8t-23 21t-8.5 31h-99z" />
    <glyph glyph-name="Iogonek" unicode="&#x12e;" horiz-adv-x="320" 
d="M74 700v-700h172v700h-172zM225 -109q-10 -10 -22.5 -15t-27.5 -5q-18 0 -27 9.5t-9 27.5q0 16 9.5 32t27.5 32t44 30l-41 25q-35 -18 -66.5 -39.5t-52 -47t-20.5 -58.5q0 -32 16 -55t42.5 -34t59.5 -11q41 0 65 12.5t35 27.5z" />
    <glyph glyph-name="iogonek" unicode="&#x12f;" horiz-adv-x="276" 
d="M50 633q0 -36 26 -59t62 -23q37 0 62.5 23t25.5 59t-25.5 58.5t-62.5 22.5q-36 0 -62 -22.5t-26 -58.5zM65 460v-460h146v460h-146zM191 -111q-10 -10 -22.5 -15t-27.5 -5q-17 0 -26 9.5t-9 27.5q0 16 9 32t27 32t44 30l-41 25q-35 -18 -66.5 -39.5t-51.5 -47t-20 -58.5
q0 -32 15.5 -54.5t42 -34t59.5 -11.5q41 0 65 12.5t35 27.5z" />
    <glyph glyph-name="Idotaccent" unicode="&#x130;" horiz-adv-x="320" 
d="M74 700v-700h172v700h-172zM71 858q0 -36 26 -59t62 -23q37 0 62.5 23t25.5 59t-25.5 59t-62.5 23q-36 0 -62 -23t-26 -59z" />
    <glyph glyph-name="dotlessi" unicode="&#x131;" horiz-adv-x="276" 
d="M65 460v-460h146v460h-146z" />
    <glyph glyph-name="IJ" unicode="&#x132;" horiz-adv-x="624" 
d="M222 -64l-92 -118q20 -14 49.5 -26.5t65.5 -21.5t74 -9q47 0 89 10.5t73.5 32t50 57t18.5 85.5v754h-183v-716q0 -44 -21 -62.5t-44 -18.5q-22 0 -43.5 10t-36.5 23zM74 700v-700h172v700h-172z" />
    <glyph glyph-name="ij" unicode="&#x133;" horiz-adv-x="545" 
d="M319 633q0 -36 25.5 -59t62.5 -23q36 0 62 23t26 59t-26 58.5t-62 22.5q-37 0 -62.5 -22.5t-25.5 -58.5zM239 -77l-61 -111q12 -10 28 -22t41 -20.5t59 -8.5q57 0 95.5 20.5t58 58t19.5 88.5v532h-145v-494q0 -24 -5.5 -39t-16.5 -22.5t-26 -7.5q-13 0 -24.5 6t-22.5 20z
M50 633q0 -36 26 -59t62 -23q37 0 62.5 23t25.5 59t-25.5 58.5t-62.5 22.5q-36 0 -62 -22.5t-26 -58.5zM65 460v-460h146v460h-146z" />
    <glyph glyph-name="Jcircumflex" unicode="&#x134;" horiz-adv-x="330" 
d="M-72 -64l-92 -118q21 -14 50 -26.5t65 -21.5t75 -9q46 0 88 10.5t74 32t50 57t18 85.5v754h-182v-716q0 -44 -21 -62.5t-44 -18.5q-22 0 -44 10t-37 23zM165 862l91 -86l106 71l-197 140l-198 -140l106 -71z" />
    <glyph glyph-name="jcircumflex" unicode="&#x135;" horiz-adv-x="272" 
d="M-33 -77l-61 -111q11 -10 27.5 -22t41.5 -20.5t58 -8.5q58 0 96.5 20.5t58 58t19.5 88.5v532h-146v-494q0 -24 -5.5 -39t-16.5 -22.5t-26 -7.5q-13 0 -24.5 6t-21.5 20zM134 616l91 -85l106 71l-197 140l-198 -140l106 -71z" />
    <glyph glyph-name="uni0136" unicode="&#x136;" horiz-adv-x="699" 
d="M74 700v-700h175v700h-175zM487 700l-287 -333l295 -367h205l-299 372l284 328h-198zM330 -60l-88 -259l114 -23l126 250z" />
    <glyph glyph-name="uni0137" unicode="&#x137;" horiz-adv-x="577" 
d="M58 780v-780h145v780h-145zM370 460l-197 -190l220 -270h177l-216 270l196 190h-180zM257 -60l-88 -259l114 -23l126 250z" />
    <glyph glyph-name="kgreenlandic" unicode="&#x138;" horiz-adv-x="577" 
d="M58 460v-460h145v460h-145zM370 460l-197 -190l220 -270h177l-216 270l196 190h-180z" />
    <glyph glyph-name="Lacute" unicode="&#x139;" horiz-adv-x="528" 
d="M74 700v-700h450v145h-281v555h-169zM460 926l-115 53l-150 -160l85 -43z" />
    <glyph glyph-name="lacute" unicode="&#x13a;" horiz-adv-x="270" 
d="M59 780v-780h152v780h-152zM297 990l-116 52l-150 -160l86 -42z" />
    <glyph glyph-name="uni013B" unicode="&#x13b;" horiz-adv-x="528" 
d="M74 700v-700h450v145h-281v555h-169zM267 -60l-88 -259l114 -23l126 250z" />
    <glyph glyph-name="uni013C" unicode="&#x13c;" horiz-adv-x="270" 
d="M59 780v-780h152v780h-152zM103 -60l-88 -259l114 -23l126 250z" />
    <glyph glyph-name="Lcaron" unicode="&#x13d;" horiz-adv-x="528" 
d="M74 700v-700h450v145h-281v555h-169zM412 716l-88 -259l114 -23l125 250z" />
    <glyph glyph-name="lcaron" unicode="&#x13e;" horiz-adv-x="270" 
d="M59 780v-780h152v780h-152zM349 780l-88 -259l114 -23l125 250z" />
    <glyph glyph-name="Ldot" unicode="&#x13f;" horiz-adv-x="528" 
d="M74 700v-700h450v145h-281v555h-169zM323 431q0 -38 27 -65.5t68 -27.5t67.5 27.5t26.5 65.5q0 37 -26.5 64.5t-67.5 27.5t-68 -27.5t-27 -64.5z" />
    <glyph glyph-name="ldot" unicode="&#x140;" horiz-adv-x="476" 
d="M59 780v-780h152v780h-152zM252 409q0 -38 27 -65t67 -27q42 0 68.5 27t26.5 65t-26.5 65t-68.5 27q-40 0 -67 -27t-27 -65z" />
    <glyph glyph-name="Lslash" unicode="&#x141;" horiz-adv-x="534" 
d="M5 309l363 244l-38 74l-364 -244zM74 700v-700h450v145h-281v555h-169z" />
    <glyph glyph-name="lslash" unicode="&#x142;" horiz-adv-x="270" 
d="M-7 309l330 218l-38 74l-331 -218zM59 780v-780h152v780h-152z" />
    <glyph glyph-name="Nacute" unicode="&#x143;" horiz-adv-x="794" 
d="M557 700v-394l-483 429v-735h162v394l484 -429v735h-163zM548 911l-116 53l-150 -160l86 -43z" />
    <glyph glyph-name="nacute" unicode="&#x144;" 
d="M211 460h-152v-460h152v460zM358 280v-280h157v296q0 85 -39.5 130t-124.5 45q-57 0 -93.5 -26.5t-54.5 -71t-18 -99.5l26 6q0 27 10 45.5t28 29t42 10.5q37 0 52 -22t15 -63zM452 681l-115 52l-150 -160l85 -42z" />
    <glyph glyph-name="uni0145" unicode="&#x145;" horiz-adv-x="794" 
d="M364 -54l-88 -259l114 -23l124 250zM557 700v-394l-483 429v-735h162v394l484 -429v735h-163z" />
    <glyph glyph-name="uni0146" unicode="&#x146;" 
d="M211 460h-152v-460h152v460zM358 280v-280h157v296q0 85 -39.5 130t-124.5 45q-57 0 -94.5 -26.5t-56.5 -71t-19 -99.5l30 6q0 27 10 45.5t28 29t42 10.5q37 0 52 -22t15 -63zM255 -60l-88 -259l114 -23l126 250z" />
    <glyph glyph-name="Ncaron" unicode="&#x147;" horiz-adv-x="794" 
d="M375 902l-91 85l-106 -71l197 -140l197 140l-105 71zM557 700v-394l-483 429v-735h162v394l484 -429v735h-163z" />
    <glyph glyph-name="ncaron" unicode="&#x148;" 
d="M211 460h-152v-460h152v460zM358 280v-280h157v296q0 85 -39.5 130t-124.5 45q-57 0 -94.5 -26.5t-56.5 -71t-19 -99.5l30 6q0 27 10 45.5t28 29t42 10.5q37 0 52 -22t15 -63zM287 656l-92 86l-105 -71l197 -140l197 140l-106 71z" />
    <glyph glyph-name="napostrophe" unicode="&#x149;" horiz-adv-x="747" 
d="M383 460h-151v-460h151v460zM530 280v-280h157v296q0 85 -39.5 130t-124.5 45q-56 0 -94 -26.5t-57 -71t-19 -99.5l30 6q0 27 10 45.5t28 29t42 10.5q37 0 52 -22t15 -63zM111 700l-53 -255h107l103 255h-157z" />
    <glyph glyph-name="Eng" unicode="&#x14a;" horiz-adv-x="794" 
d="M546 -215q54 0 93 20t60 57.5t21 88.5v749h-163v-394l-483 429v-735h162v394l339 -308v-97q0 -23 -6 -38t-16.5 -22.5t-25.5 -7.5t-25.5 6.5t-21.5 18.5l-61 -110q30 -27 59.5 -39t67.5 -12z" />
    <glyph glyph-name="eng" unicode="&#x14b;" 
d="M329 -239q89 0 137.5 43.5t48.5 123.5v368q0 88 -41 131.5t-123 43.5q-47 0 -82.5 -20.5t-57.5 -58.5v68h-152v-460h152v277q0 28 9.5 47.5t27.5 30t43 10.5q34 0 50.5 -20.5t16.5 -64.5v-314q0 -34 -12.5 -51.5t-35.5 -17.5q-27 0 -47 26l-61 -111q29 -26 60 -38.5
t67 -12.5z" />
    <glyph glyph-name="Omacron" unicode="&#x14c;" horiz-adv-x="821" 
d="M213 350q0 62 24.5 109.5t69 74.5t104.5 27q61 0 105 -27t68 -74.5t24 -109.5t-24.5 -109.5t-69 -74.5t-103.5 -27q-60 0 -104.5 27t-69 74.5t-24.5 109.5zM34 350q0 -81 27.5 -149t78 -118t119.5 -77.5t152 -27.5q82 0 151 27.5t119.5 77.5t78 118t27.5 149t-28 148
t-79 116t-119.5 75.5t-149.5 26.5q-80 0 -149 -26.5t-120 -75.5t-79.5 -116t-28.5 -148zM225 776h371v131h-371v-131z" />
    <glyph glyph-name="omacron" unicode="&#x14d;" horiz-adv-x="589" 
d="M32 230q0 -72 34 -126t94 -84t135 -30t134.5 30t94 84t34.5 126q0 73 -34.5 127t-94 84t-134.5 30t-135 -30t-94 -84t-34 -127zM187 230q0 36 15 62t39 40t54 14q29 0 53.5 -14t39 -40t14.5 -62t-14.5 -61.5t-39 -39.5t-53.5 -14q-30 0 -54 14t-39 39.5t-15 61.5z
M109 531h371v131h-371v-131z" />
    <glyph glyph-name="Obreve" unicode="&#x14e;" horiz-adv-x="821" 
d="M213 350q0 62 24.5 109.5t69 74.5t104.5 27q61 0 105 -27t68 -74.5t24 -109.5t-24.5 -109.5t-69 -74.5t-103.5 -27q-60 0 -104.5 27t-69 74.5t-24.5 109.5zM34 350q0 -81 27.5 -149t78 -118t119.5 -77.5t152 -27.5q82 0 151 27.5t119.5 77.5t78 118t27.5 149t-28 148
t-79 116t-119.5 75.5t-149.5 26.5q-80 0 -149 -26.5t-120 -75.5t-79.5 -116t-28.5 -148zM246 922q0 -40 19 -73.5t56.5 -53t89.5 -19.5q53 0 89.5 19.5t55.5 53t19 73.5h-99q0 -17 -8.5 -30.5t-23 -21t-33.5 -7.5q-20 0 -34.5 7.5t-23 21t-8.5 30.5h-99z" />
    <glyph glyph-name="obreve" unicode="&#x14f;" horiz-adv-x="589" 
d="M32 230q0 -72 34 -126t94 -84t135 -30t134.5 30t94 84t34.5 126q0 73 -34.5 127t-94 84t-134.5 30t-135 -30t-94 -84t-34 -127zM187 230q0 36 15 62t39 40t54 14q29 0 53.5 -14t39 -40t14.5 -62t-14.5 -61.5t-39 -39.5t-53.5 -14q-30 0 -54 14t-39 39.5t-15 61.5z
M131 677q0 -40 19 -73.5t56 -53t89 -19.5q53 0 89.5 19.5t55.5 53t19 73.5h-99q0 -18 -8 -31t-23 -21t-34 -8q-20 0 -34.5 8t-23 21t-8.5 31h-98z" />
    <glyph glyph-name="Ohungarumlaut" unicode="&#x150;" horiz-adv-x="821" 
d="M317 776l145 183l-123 30l-114 -188zM504 776l145 183l-124 30l-113 -188zM213 350q0 62 24.5 109.5t69 74.5t104.5 27q61 0 105 -27t68 -74.5t24 -109.5t-24.5 -109.5t-69 -74.5t-103.5 -27q-60 0 -104.5 27t-69 74.5t-24.5 109.5zM34 350q0 -81 27.5 -149t78 -118
t119.5 -77.5t152 -27.5q82 0 151 27.5t119.5 77.5t78 118t27.5 149t-28 148t-79 116t-119.5 75.5t-149.5 26.5q-80 0 -149 -26.5t-120 -75.5t-79.5 -116t-28.5 -148z" />
    <glyph glyph-name="ohungarumlaut" unicode="&#x151;" horiz-adv-x="589" 
d="M201 531l145 183l-123 30l-114 -188zM388 531l145 183l-124 30l-113 -188zM32 230q0 -72 34 -126t94 -84t135 -30t134.5 30t94 84t34.5 126q0 73 -34.5 127t-94 84t-134.5 30t-135 -30t-94 -84t-34 -127zM187 230q0 36 15 62t39 40t54 14q29 0 53.5 -14t39 -40t14.5 -62
t-14.5 -61.5t-39 -39.5t-53.5 -14q-30 0 -54 14t-39 39.5t-15 61.5z" />
    <glyph glyph-name="OE" unicode="&#x152;" horiz-adv-x="985" 
d="M562 300h367v136h-367v-136zM484 670v-640h163v640h-163zM950 139h-378l-24 9h-127q-52 0 -91.5 13t-66.5 38.5t-40.5 63.5t-13.5 87t13.5 87t40.5 63.5t66.5 38.5t91.5 13h130l17 9h381v139h-559q-76 0 -141.5 -25t-113 -71.5t-74.5 -111t-27 -142.5t27 -142.5t75 -111
t113 -71.5t141 -25h560v139z" />
    <glyph glyph-name="oe" unicode="&#x153;" horiz-adv-x="900" 
d="M705 250v-20l158 -32q1 6 1.5 18t0.5 18q0 73 -29 125.5t-76 81.5t-102 29q-59 0 -106.5 -24t-77.5 -67t-40 -100q-2 -12 -3 -24t-1 -25q0 -69 27 -123.5t75 -85.5t110 -31q50 0 93.5 18t77 49t53.5 69l-134 33q-20 -27 -46 -45t-67 -18q-32 0 -56 15.5t-37 45t-13 73.5
l2 30q0 37 14 61t37 36t51 12q29 0 49 -14.5t29.5 -41t9.5 -63.5zM481 198h382l-19 83h-363v-83zM35 230q0 -74 31 -128t83 -83t114 -29q63 0 108.5 29t70 83t24.5 128q0 75 -24.5 128.5t-70 82.5t-108.5 29q-62 0 -114 -29t-83 -82.5t-31 -128.5zM184 230q0 37 14.5 63
t39 39t54.5 13q28 0 50.5 -13t35.5 -39t13 -63t-13 -63t-35.5 -39t-50.5 -13q-30 0 -54.5 13t-39 39t-14.5 63z" />
    <glyph glyph-name="Racute" unicode="&#x154;" horiz-adv-x="647" 
d="M248 317l197 -317h198l-219 317h-176zM74 700v-700h169v700h-169zM180 557h137q34 0 58.5 -11t37.5 -31.5t13 -49.5t-13 -49.5t-37.5 -31t-58.5 -10.5h-137v-131h149q90 0 150 29t91 80.5t31 118.5q0 68 -31 119.5t-91 80.5t-150 29h-149v-143zM469 926l-115 53
l-150 -160l85 -43z" />
    <glyph glyph-name="racute" unicode="&#x155;" horiz-adv-x="411" 
d="M208 460h-149v-460h149v460zM341 304l65 129q-12 18 -35 28t-48 10q-38 0 -73 -25t-56.5 -68t-21.5 -98l36 -53q0 33 9 56t26 35t39 12q20 0 33.5 -7t25.5 -19zM394 681l-115 53l-150 -160l85 -43z" />
    <glyph glyph-name="uni0156" unicode="&#x156;" horiz-adv-x="647" 
d="M248 317l197 -317h198l-219 317h-176zM74 700v-700h169v700h-169zM180 557h137q34 0 58.5 -11t37.5 -31.5t13 -49.5t-13 -49.5t-37.5 -31t-58.5 -10.5h-137v-131h149q90 0 150 29t91 80.5t31 118.5q0 68 -31 119.5t-91 80.5t-150 29h-149v-143zM327 -60l-88 -259l114 -23
l125 250z" />
    <glyph glyph-name="uni0157" unicode="&#x157;" horiz-adv-x="411" 
d="M208 460h-149v-460h149v460zM341 304l65 129q-12 18 -35 28t-48 10q-38 0 -73 -25t-56.5 -68t-21.5 -98l36 -53q0 33 9 56t26 35t39 12q20 0 33.5 -7t25.5 -19zM102 -60l-88 -259l114 -23l125 250z" />
    <glyph glyph-name="Rcaron" unicode="&#x158;" horiz-adv-x="647" 
d="M248 317l197 -317h198l-219 317h-176zM74 700v-700h169v700h-169zM180 557h137q34 0 58.5 -11t37.5 -31.5t13 -49.5t-13 -49.5t-37.5 -31t-58.5 -10.5h-137v-131h149q90 0 150 29t91 80.5t31 118.5q0 68 -31 119.5t-91 80.5t-150 29h-149v-143zM313 902l-92 85l-105 -71
l197 -140l197 140l-106 71z" />
    <glyph glyph-name="rcaron" unicode="&#x159;" horiz-adv-x="411" 
d="M208 460h-149v-460h149v460zM341 304l65 129q-12 18 -35 28t-48 10q-38 0 -73 -25t-56.5 -68t-21.5 -98l36 -53q0 33 9 56t26 35t39 12q20 0 33.5 -7t25.5 -19zM233 657l-92 85l-106 -71l198 -140l197 140l-106 71z" />
    <glyph glyph-name="Sacute" unicode="&#x15a;" horiz-adv-x="625" 
d="M153 251l-119 -84q22 -57 64.5 -99.5t99.5 -66t121 -23.5q82 0 141.5 25t92.5 73.5t33 119.5q0 46 -14 80.5t-38.5 60.5t-57 44.5t-68.5 31.5q-41 15 -78 29t-60 30.5t-23 40.5q0 19 10 32t28.5 20.5t42.5 7.5q27 0 49 -10t39.5 -29t32.5 -45l128 73q-14 36 -46 71.5
t-83 59t-127 23.5q-73 0 -128.5 -24t-87 -68.5t-31.5 -104.5q0 -51 20 -87.5t49.5 -62t62.5 -41.5t58 -26q40 -15 72.5 -29t52 -32.5t19.5 -47.5q0 -23 -9.5 -38t-28.5 -22.5t-47 -7.5t-51.5 7.5t-43.5 23.5t-38.5 40t-36.5 55zM501 926l-116 53l-150 -160l86 -43z" />
    <glyph glyph-name="sacute" unicode="&#x15b;" horiz-adv-x="456" 
d="M83 175l-64 -100q29 -28 65 -49.5t79 -33t92 -11.5q83 0 130 35t47 114q0 40 -18 66t-47 43t-62 29q-29 12 -56 21t-44.5 19t-17.5 24q0 15 12 21.5t36 6.5q19 0 43 -7t48 -19.5t42 -29.5l54 98q-25 20 -55.5 35t-66 24t-75.5 9q-50 0 -91.5 -15t-66.5 -44.5t-25 -73.5
q0 -40 16.5 -66t43 -43t56.5 -31q27 -12 55.5 -21t48 -19.5t19.5 -28.5t-13 -24.5t-33 -6.5q-16 0 -38.5 7t-51 24t-62.5 47zM405 681l-116 52l-150 -160l86 -42z" />
    <glyph glyph-name="Scircumflex" unicode="&#x15c;" horiz-adv-x="625" 
d="M153 251l-119 -84q22 -57 64.5 -99.5t99.5 -66t121 -23.5q82 0 141.5 25t92.5 73.5t33 119.5q0 46 -14 80.5t-38.5 60.5t-57 44.5t-68.5 31.5q-41 15 -78 29t-60 30.5t-23 40.5q0 19 10 32t28.5 20.5t42.5 7.5q27 0 49 -10t39.5 -29t32.5 -45l128 73q-14 36 -46 71.5
t-83 59t-127 23.5q-73 0 -128.5 -24t-87 -68.5t-31.5 -104.5q0 -51 20 -87.5t49.5 -62t62.5 -41.5t58 -26q40 -15 72.5 -29t52 -32.5t19.5 -47.5q0 -23 -9.5 -38t-28.5 -22.5t-47 -7.5t-51.5 7.5t-43.5 23.5t-38.5 40t-36.5 55zM321 862l91 -86l106 71l-197 140l-197 -140
l106 -71z" />
    <glyph glyph-name="scircumflex" unicode="&#x15d;" horiz-adv-x="456" 
d="M83 175l-64 -100q29 -28 65 -49.5t79 -33t92 -11.5q83 0 130 35t47 114q0 40 -18 66t-47 43t-62 29q-29 12 -56 21t-44.5 19t-17.5 24q0 15 12 21.5t36 6.5q19 0 43 -7t48 -19.5t42 -29.5l54 98q-25 20 -55.5 35t-66 24t-75.5 9q-50 0 -91.5 -15t-66.5 -44.5t-25 -73.5
q0 -40 16.5 -66t43 -43t56.5 -31q27 -12 55.5 -21t48 -19.5t19.5 -28.5t-13 -24.5t-33 -6.5q-16 0 -38.5 7t-51 24t-62.5 47zM237 616l92 -85l105 71l-197 140l-197 -140l106 -71z" />
    <glyph glyph-name="Scedilla" unicode="&#x15e;" horiz-adv-x="625" 
d="M153 251l-119 -84q22 -57 64.5 -99.5t99.5 -66t121 -23.5q80 0 140 25t93.5 73.5t33.5 119.5q0 46 -14 80.5t-38.5 60.5t-57 44.5t-68.5 31.5q-41 15 -78 29t-60 30.5t-23 40.5q0 19 9 32t26.5 20.5t41.5 7.5q27 0 50 -10t41.5 -29t33.5 -45l128 73q-16 38 -47.5 73.5
t-82 58t-126.5 22.5q-75 0 -130 -25t-86 -69.5t-31 -103.5q0 -53 20 -89.5t49.5 -61t62.5 -40t58 -25.5q40 -15 72.5 -29t52 -32.5t19.5 -47.5q0 -23 -9.5 -38t-28.5 -22.5t-47 -7.5t-51.5 7.5t-43.5 23.5t-38.5 40t-36.5 55zM291 61l-88 -195q26 11 51 13.5t32 2.5
q23 0 41.5 -6t18.5 -26q0 -18 -14 -26.5t-40 -8.5q-15 0 -37.5 5.5t-40.5 19.5l-46 -68q35 -23 68.5 -31.5t75.5 -8.5q31 0 61 12.5t50 37t20 59.5q0 33 -14.5 55t-36 32.5t-41.5 10.5q-10 0 -19 -0.5t-17 -3.5l86 122z" />
    <glyph glyph-name="scedilla" unicode="&#x15f;" horiz-adv-x="456" 
d="M82 175l-63 -99q32 -28 69 -49.5t79.5 -33.5t90.5 -12q81 0 127.5 35t46.5 114q0 42 -18 68t-47 43t-62 29q-29 12 -54.5 20t-42 18t-16.5 28q0 14 12.5 22t36.5 8q28 0 64 -17.5t63 -44.5l54 98q-40 29 -89 48.5t-108 19.5q-50 0 -88.5 -14.5t-61 -44t-22.5 -72.5
q0 -45 19 -72t49 -43t62 -28q26 -9 48 -18t36 -20t14 -29q0 -17 -12.5 -26.5t-31.5 -9.5q-14 0 -36 7t-51.5 24.5t-67.5 50.5zM225 64l-87 -194q25 11 49.5 13.5t31.5 2.5q24 0 42.5 -6.5t18.5 -26.5q0 -18 -14.5 -26.5t-40.5 -8.5q-14 0 -36.5 6t-41.5 20l-45 -69
q35 -22 68 -30.5t75 -8.5q32 0 62 12t50 36.5t20 60.5q0 33 -15 54.5t-36 32t-41 10.5q-10 0 -19 -0.5t-17 -2.5l86 122z" />
    <glyph glyph-name="Scaron" unicode="&#x160;" horiz-adv-x="625" 
d="M153 251l-119 -84q22 -57 64.5 -99.5t99.5 -66t121 -23.5q82 0 141.5 25t92.5 73.5t33 119.5q0 46 -14 80.5t-38.5 60.5t-57 44.5t-68.5 31.5q-41 15 -78 29t-60 30.5t-23 40.5q0 19 10 32t28.5 20.5t42.5 7.5q27 0 49 -10t39.5 -29t32.5 -45l128 73q-14 36 -46 71.5
t-83 59t-127 23.5q-73 0 -128.5 -24t-87 -68.5t-31.5 -104.5q0 -51 20 -87.5t49.5 -62t62.5 -41.5t58 -26q40 -15 72.5 -29t52 -32.5t19.5 -47.5q0 -23 -9.5 -38t-28.5 -22.5t-47 -7.5t-51.5 7.5t-43.5 23.5t-38.5 40t-36.5 55zM321 902l-91 85l-106 -71l197 -140l197 140
l-106 71z" />
    <glyph glyph-name="scaron" unicode="&#x161;" horiz-adv-x="456" 
d="M83 175l-64 -100q29 -28 65 -49.5t79 -33t92 -11.5q83 0 130 35t47 114q0 40 -18 66t-47 43t-62 29q-29 12 -56 21t-44.5 19t-17.5 24q0 15 12 21.5t36 6.5q19 0 43 -7t48 -19.5t42 -29.5l54 98q-25 20 -55.5 35t-66 24t-75.5 9q-50 0 -91.5 -15t-66.5 -44.5t-25 -73.5
q0 -40 16.5 -66t43 -43t56.5 -31q27 -12 55.5 -21t48 -19.5t19.5 -28.5t-13 -24.5t-33 -6.5q-16 0 -38.5 7t-51 24t-62.5 47zM225 644l-92 85l-106 -71l198 -140l197 140l-106 71z" />
    <glyph glyph-name="uni0162" unicode="&#x162;" horiz-adv-x="561" 
d="M226 11l-88 -195q26 11 50.5 14t31.5 3q23 0 42 -6.5t19 -26.5q0 -18 -14.5 -26.5t-40.5 -8.5q-14 0 -36.5 6t-41.5 20l-46 -69q36 -22 69 -30.5t75 -8.5q32 0 62 12t49.5 36.5t19.5 60.5q0 33 -14.5 54.5t-35.5 32t-41 10.5q-10 0 -19 -0.5t-18 -2.5l87 121zM4 549h192
v-549h169v549h193v151h-554v-151z" />
    <glyph glyph-name="uni0163" unicode="&#x163;" horiz-adv-x="318" 
d="M105 11l-88 -195q26 11 50.5 14t31.5 3q23 0 42 -6.5t19 -26.5q0 -18 -14.5 -26.5t-40.5 -8.5q-14 0 -36.5 6t-41.5 20l-46 -69q36 -22 69 -30.5t75 -8.5q32 0 62 12t49.5 36.5t19.5 60.5q0 33 -14.5 54.5t-35.5 32t-41 10.5q-10 0 -19 -0.5t-18 -2.5l87 121zM5 460v-125
h308v125h-308zM86 620v-620h145v620h-145z" />
    <glyph glyph-name="Tcaron" unicode="&#x164;" horiz-adv-x="561" 
d="M4 549h192v-549h169v549h193v151h-554v-151zM281 902l-92 85l-105 -71l197 -140l197 140l-106 71z" />
    <glyph glyph-name="tcaron" unicode="&#x165;" horiz-adv-x="484" 
d="M5 460v-125h308v125h-308zM86 620v-620h145v620h-145zM380 786l-88 -259l114 -23l126 250z" />
    <glyph glyph-name="Tbar" unicode="&#x166;" horiz-adv-x="561" 
d="M94 302h374v131h-374v-131zM4 549h192v-549h169v549h193v151h-554v-151z" />
    <glyph glyph-name="tbar" unicode="&#x167;" horiz-adv-x="240" 
d="M20 177h212v131h-212v-131zM5 460v-125h308v125h-308zM86 620v-620h145v620h-145z" />
    <glyph glyph-name="Utilde" unicode="&#x168;" horiz-adv-x="701" 
d="M69 700v-470q0 -66 21.5 -115t60 -80.5t89.5 -47.5t110 -16t110.5 16t90 47.5t60 80.5t21.5 115v470h-169v-458q0 -53 -28 -86t-85 -33q-56 0 -84 33t-28 86v458h-169zM154 842l72 -62q0 8 3.5 20t14 21.5t29.5 9.5q25 0 46 -13.5t43.5 -26.5t49.5 -13q32 0 59.5 13.5
t47 33.5t27.5 38l-71 74q-15 -24 -30.5 -38.5t-34.5 -14.5q-21 0 -36 8t-28.5 18t-30.5 18t-41 8q-32 0 -57.5 -13.5t-41.5 -34.5t-21 -46z" />
    <glyph glyph-name="utilde" unicode="&#x169;" 
d="M364 0h151v460h-151v-460zM217 180v280h-158v-296q0 -85 39.5 -130t125.5 -45q57 0 93.5 26.5t54.5 71.5t18 99l-26 -6q0 -27 -10 -45.5t-27.5 -29t-42.5 -10.5q-37 0 -52 22t-15 63zM92 596l71 -62q0 8 4 20t14.5 21.5t28.5 9.5q25 0 46.5 -13t44 -26.5t49.5 -13.5
q31 0 58.5 13.5t47.5 34t28 38.5l-71 74q-15 -24 -30.5 -38.5t-34.5 -14.5q-21 0 -36 8t-28.5 18t-30.5 18t-42 8q-31 0 -56.5 -14t-41.5 -35t-21 -46z" />
    <glyph glyph-name="Umacron" unicode="&#x16a;" horiz-adv-x="701" 
d="M69 700v-470q0 -66 21.5 -115t60 -80.5t89.5 -47.5t110 -16t110.5 16t90 47.5t60 80.5t21.5 115v470h-169v-458q0 -53 -28 -86t-85 -33q-56 0 -84 33t-28 86v458h-169zM165 776h371v131h-371v-131z" />
    <glyph glyph-name="umacron" unicode="&#x16b;" 
d="M364 0h151v460h-151v-460zM217 180v280h-158v-296q0 -85 39.5 -130t125.5 -45q57 0 93.5 26.5t54.5 71.5t18 99l-26 -6q0 -27 -10 -45.5t-27.5 -29t-42.5 -10.5q-37 0 -52 22t-15 63zM102 531h371v131h-371v-131z" />
    <glyph glyph-name="Ubreve" unicode="&#x16c;" horiz-adv-x="701" 
d="M69 700v-470q0 -66 21.5 -115t60 -80.5t89.5 -47.5t110 -16t110.5 16t90 47.5t60 80.5t21.5 115v470h-169v-458q0 -53 -28 -86t-85 -33q-56 0 -84 33t-28 86v458h-169zM186 922q0 -40 19 -73.5t56 -53t89 -19.5q53 0 89.5 19.5t55.5 53t19 73.5h-98q0 -17 -8.5 -30.5
t-23 -21t-34.5 -7.5q-19 0 -33.5 7.5t-23 21t-8.5 30.5h-99z" />
    <glyph glyph-name="ubreve" unicode="&#x16d;" 
d="M364 0h151v460h-151v-460zM217 180v280h-158v-296q0 -85 39.5 -130t125.5 -45q57 0 93.5 26.5t54.5 71.5t18 99l-26 -6q0 -27 -10 -45.5t-27.5 -29t-42.5 -10.5q-37 0 -52 22t-15 63zM124 677q0 -40 19 -73.5t56 -53t89 -19.5q53 0 89.5 19.5t55.5 53t19 73.5h-99
q0 -18 -8 -31t-23 -21t-34 -8q-20 0 -34.5 8t-22.5 21t-8 31h-99z" />
    <glyph glyph-name="Uring" unicode="&#x16e;" horiz-adv-x="701" 
d="M69 700v-470q0 -66 21.5 -115t60 -80.5t89.5 -47.5t110 -16t110.5 16t90 47.5t60 80.5t21.5 115v470h-169v-458q0 -53 -28 -86t-85 -33q-56 0 -84 33t-28 86v458h-169zM225 892q0 -51 36.5 -83.5t88.5 -32.5t88.5 32.5t36.5 83.5q0 52 -36.5 83.5t-88.5 31.5t-88.5 -31.5
t-36.5 -83.5zM304 892q0 22 13.5 35t32.5 13t32.5 -13t13.5 -35q0 -23 -13.5 -35.5t-32.5 -12.5t-32.5 12.5t-13.5 35.5z" />
    <glyph glyph-name="uring" unicode="&#x16f;" 
d="M364 0h151v460h-151v-460zM217 180v280h-158v-296q0 -85 39.5 -130t125.5 -45q57 0 93.5 26.5t54.5 71.5t18 99l-26 -6q0 -27 -10 -45.5t-27.5 -29t-42.5 -10.5q-37 0 -52 22t-15 63zM163 646q0 -51 36 -83t88 -32t89 32t37 83q0 52 -37 84t-89 32t-88 -32t-36 -84z
M241 646q0 23 13.5 35.5t32.5 12.5t33 -12.5t14 -35.5q0 -22 -14 -34.5t-33 -12.5t-32.5 12.5t-13.5 34.5z" />
    <glyph glyph-name="Uhungarumlaut" unicode="&#x170;" horiz-adv-x="701" 
d="M257 776l145 183l-123 30l-114 -188zM444 776l145 183l-124 30l-113 -188zM69 700v-470q0 -66 21.5 -115t60 -80.5t89.5 -47.5t110 -16t110.5 16t90 47.5t60 80.5t21.5 115v470h-169v-458q0 -53 -28 -86t-85 -33q-56 0 -84 33t-28 86v458h-169z" />
    <glyph glyph-name="uhungarumlaut" unicode="&#x171;" 
d="M194 531l145 183l-123 30l-114 -188zM381 531l145 183l-124 30l-113 -188zM217 180v280h-158v-296q0 -82 39.5 -128.5t125.5 -46.5q51 0 85 21.5t55 58.5v-69h151v460h-151v-280q0 -27 -10 -46t-27.5 -29t-42.5 -10q-37 0 -52 22.5t-15 62.5z" />
    <glyph glyph-name="Uogonek" unicode="&#x172;" horiz-adv-x="701" 
d="M396 -127q-10 -10 -22.5 -15t-27.5 -5q-18 0 -27 9.5t-9 27.5q0 16 9.5 32t27.5 32t44 30l-41 25q-35 -18 -66.5 -39.5t-51.5 -47t-20 -58.5q0 -32 15.5 -54.5t42 -34t59.5 -11.5q41 0 65 12.5t35 27.5zM69 700v-470q0 -66 21.5 -115t60 -80.5t89.5 -47.5t110 -16
t110.5 16t90 47.5t60 80.5t21.5 115v470h-169v-458q0 -53 -28 -86t-85 -33q-56 0 -84 33t-28 86v458h-169z" />
    <glyph glyph-name="uogonek" unicode="&#x173;" 
d="M510 -111q-10 -10 -22.5 -15t-27.5 -5q-18 0 -27 9.5t-9 27.5q0 16 9.5 32t27.5 32t44 30l-41 25q-35 -18 -66.5 -39.5t-51.5 -47t-20 -58.5q0 -32 15.5 -54.5t42 -34t59.5 -11.5q41 0 65 12.5t35 27.5zM217 180v280h-158v-296q0 -82 39.5 -128.5t125.5 -46.5
q51 0 85 21.5t55 58.5v-69h151v460h-151v-280q0 -27 -10 -46t-27.5 -29t-42.5 -10q-37 0 -52 22.5t-15 62.5z" />
    <glyph glyph-name="Wcircumflex" unicode="&#x174;" horiz-adv-x="1065" 
d="M729 284l-197 451l-197 -451l-131 416h-200l303 -741l225 422l226 -422l303 741h-201zM532 881l92 -86l106 71l-198 140l-197 -140l106 -71z" />
    <glyph glyph-name="wcircumflex" unicode="&#x175;" horiz-adv-x="761" 
d="M-7 460l237 -489l149 274l152 -274l237 489h-158l-96 -236l-136 271l-131 -271l-96 236h-158zM378 641l92 -86l106 71l-198 140l-197 -140l106 -71z" />
    <glyph glyph-name="Ycircumflex" unicode="&#x176;" horiz-adv-x="660" 
d="M467 700l-137 -263l-137 263h-194l245 -416v-284h172v285l245 415h-194zM330 862l91 -86l106 71l-197 140l-197 -140l106 -71z" />
    <glyph glyph-name="ycircumflex" unicode="&#x177;" horiz-adv-x="521" 
d="M530 460h-155l-147 -368l78 -1l-149 369h-166l199 -423l-112 -257h152zM260 616l92 -85l106 71l-198 140l-197 -140l106 -71z" />
    <glyph glyph-name="Ydieresis" unicode="&#x178;" horiz-adv-x="660" 
d="M102 868q0 -35 25.5 -58t61.5 -23q37 0 63 23t26 58q0 37 -26 59.5t-63 22.5q-36 0 -61.5 -22.5t-25.5 -59.5zM383 868q0 -35 25.5 -58t61.5 -23q37 0 62.5 23t25.5 58q0 37 -25.5 59.5t-62.5 22.5q-36 0 -61.5 -22.5t-25.5 -59.5zM467 700l-137 -263l-137 263h-194
l245 -416v-284h172v285l245 415h-194z" />
    <glyph glyph-name="Zacute" unicode="&#x179;" horiz-adv-x="620" 
d="M57 549h278l-326 -549h561v145h-295l331 555h-549v-151zM503 926l-115 53l-150 -160l85 -43z" />
    <glyph glyph-name="zacute" unicode="&#x17a;" horiz-adv-x="522" 
d="M257 323l-242 -323h460v137h-198l230 323h-450v-137h200zM455 688l-116 53l-150 -160l86 -43z" />
    <glyph glyph-name="Zdotaccent" unicode="&#x17b;" horiz-adv-x="620" 
d="M57 549h278l-326 -549h561v145h-295l331 555h-549v-151zM243 858q0 -36 26 -59t62 -23q37 0 62.5 23t25.5 59t-25.5 59t-62.5 23q-36 0 -62 -23t-26 -59z" />
    <glyph glyph-name="zdotaccent" unicode="&#x17c;" horiz-adv-x="522" 
d="M257 323l-242 -323h460v137h-198l230 323h-450v-137h200zM194 624q0 -36 26 -59t62 -23q37 0 62.5 23t25.5 59t-25.5 58.5t-62.5 22.5q-36 0 -62 -22.5t-26 -58.5z" />
    <glyph glyph-name="Zcaron" unicode="&#x17d;" horiz-adv-x="620" 
d="M57 549h278l-326 -549h561v145h-295l331 555h-549v-151zM331 902l-91 85l-106 -71l197 -140l197 140l-106 71z" />
    <glyph glyph-name="zcaron" unicode="&#x17e;" horiz-adv-x="516" 
d="M282 656l-91 85l-106 -71l197 -140l198 140l-106 71zM258 323l-243 -323h460v137h-199l231 323h-450v-137h201z" />
    <glyph glyph-name="florin" unicode="&#x192;" horiz-adv-x="600" 
d="M193 -200q47 0 84.5 20t59.5 57.5t24 88.5l19 369h90l7 125h-90l9 131q2 33 14.5 51.5t32.5 18.5q10 0 20.5 -5.5t25.5 -19.5l57 107q-36 28 -65.5 40t-61.5 12q-70 2 -116.5 -43.5t-51.5 -122.5l-9 -169h-65l-9 -125h68l-19 -332q-2 -31 -15 -50t-34 -19q-9 0 -19.5 6
t-25.5 19l-58 -106q37 -28 66.5 -40.5t61.5 -12.5z" />
    <glyph glyph-name="uni0212" unicode="&#x212;" horiz-adv-x="647" 
d="M248 317l197 -317h198l-219 317h-176zM74 700v-700h169v700h-169zM180 557h137q34 0 58.5 -11t37.5 -31.5t13 -49.5t-13 -49.5t-37.5 -31t-58.5 -10.5h-137v-131h149q90 0 150 29t91 80.5t31 118.5q0 68 -31 119.5t-91 80.5t-150 29h-149v-143zM162 776q0 41 19 74
t56.5 52.5t89.5 19.5q53 0 89.5 -19.5t55.5 -52.5t19 -74h-99q0 18 -8.5 31t-23 21t-33.5 8q-20 0 -34.5 -8t-23 -21t-8.5 -31h-99z" />
    <glyph glyph-name="uni0213" unicode="&#x213;" horiz-adv-x="411" 
d="M208 460h-149v-460h149v460zM341 304l65 129q-12 18 -35 28t-48 10q-38 0 -73 -25t-56.5 -68t-21.5 -98l36 -53q0 33 9 56t26 35t39 12q20 0 33.5 -7t25.5 -19zM69 531q0 41 19 74t56 52.5t89 19.5q53 0 89.5 -19.5t55.5 -52.5t19 -74h-99q0 18 -8 31.5t-22.5 21
t-34.5 7.5q-19 0 -34 -7.5t-23 -21t-8 -31.5h-99z" />
    <glyph glyph-name="uni0218" unicode="&#x218;" horiz-adv-x="625" 
d="M153 251l-119 -84q22 -57 64.5 -99.5t99.5 -66t121 -23.5q82 0 141.5 25t92.5 73.5t33 119.5q0 46 -14 80.5t-38.5 60.5t-57 44.5t-68.5 31.5q-41 15 -78 29t-60 30.5t-23 40.5q0 19 10 32t28.5 20.5t42.5 7.5q27 0 49 -10t39.5 -29t32.5 -45l128 73q-14 36 -46 71.5
t-83 59t-127 23.5q-73 0 -128.5 -24t-87 -68.5t-31.5 -104.5q0 -51 20 -87.5t49.5 -62t62.5 -41.5t58 -26q40 -15 72.5 -29t52 -32.5t19.5 -47.5q0 -23 -9.5 -38t-28.5 -22.5t-47 -7.5t-51.5 7.5t-43.5 23.5t-38.5 40t-36.5 55zM262 -70l-88 -259l114 -23l126 250z" />
    <glyph glyph-name="uni0219" unicode="&#x219;" horiz-adv-x="456" 
d="M83 175l-64 -100q29 -28 65 -49.5t79 -33t92 -11.5q83 0 130 35t47 114q0 40 -18 66t-47 43t-62 29q-29 12 -56 21t-44.5 19t-17.5 24q0 15 12 21.5t36 6.5q19 0 43 -7t48 -19.5t42 -29.5l54 98q-25 20 -55.5 35t-66 24t-75.5 9q-50 0 -91.5 -15t-66.5 -44.5t-25 -73.5
q0 -40 16.5 -66t43 -43t56.5 -31q27 -12 55.5 -21t48 -19.5t19.5 -28.5t-13 -24.5t-33 -6.5q-16 0 -38.5 7t-51 24t-62.5 47zM198 -67l-88 -259l114 -23l125 250z" />
    <glyph glyph-name="uni021A" unicode="&#x21a;" horiz-adv-x="561" 
d="M4 549h192v-549h169v549h193v151h-554v-151zM249 -60l-88 -259l114 -23l126 250z" />
    <glyph glyph-name="uni021B" unicode="&#x21b;" horiz-adv-x="318" 
d="M5 460v-125h308v125h-308zM86 620v-620h145v620h-145zM127 -60l-88 -259l114 -23l126 250z" />
    <glyph glyph-name="uni0237" unicode="&#x237;" horiz-adv-x="272" 
d="M-33 -77l-61 -111q11 -10 27.5 -22t41.5 -20.5t58 -8.5q58 0 96.5 20.5t58 58t19.5 88.5v532h-146v-494q0 -24 -5.5 -39t-16.5 -22.5t-26 -7.5q-13 0 -24.5 6t-21.5 20z" />
    <glyph glyph-name="circumflex" unicode="&#x2c6;" horiz-adv-x="480" 
d="M240 629l91 -85l106 71l-197 140l-197 -140l106 -71z" />
    <glyph glyph-name="caron" unicode="&#x2c7;" horiz-adv-x="480" 
d="M240 676l-91 86l-106 -71l197 -140l197 140l-106 71z" />
    <glyph glyph-name="breve" unicode="&#x2d8;" horiz-adv-x="546" 
d="M109 850q0 -40 19 -73.5t56 -53t89 -19.5q53 0 89.5 19.5t55.5 53t19 73.5h-99q0 -17 -8 -30.5t-23 -21t-34 -7.5t-34 7.5t-23 21t-8 30.5h-99z" />
    <glyph glyph-name="dotaccent" unicode="&#x2d9;" horiz-adv-x="300" 
d="M62 813q0 -36 26 -59t62 -23q37 0 62.5 23t25.5 59t-25.5 59t-62.5 23q-36 0 -62 -23t-26 -59z" />
    <glyph glyph-name="ring" unicode="&#x2da;" horiz-adv-x="328" 
d="M39 769q0 -51 36 -83t88 -32t89 32t37 84q0 51 -37 83t-89 32t-88 -32t-36 -84zM117 770q0 22 13.5 34.5t32.5 12.5t33 -12.5t14 -34.5q0 -23 -14 -35.5t-33 -12.5t-32.5 12.5t-13.5 35.5z" />
    <glyph glyph-name="ogonek" unicode="&#x2db;" horiz-adv-x="260" 
d="M194 -111q-10 -10 -22.5 -15t-27.5 -5q-18 0 -27 9.5t-9 27.5q0 16 9.5 32t27.5 32t44 30l-41 25q-35 -18 -66.5 -39.5t-51.5 -47t-20 -58.5q0 -32 15.5 -54.5t42 -34t59.5 -11.5q41 0 65 12.5t35 27.5z" />
    <glyph glyph-name="tilde" unicode="&#x2dc;" horiz-adv-x="530" 
d="M75 637l72 -61q0 8 3.5 20t14 21.5t29.5 9.5q25 0 46 -13.5t43.5 -27t49.5 -13.5q32 0 59.5 14t47 34t27.5 38l-71 74q-15 -24 -30.5 -38.5t-34.5 -14.5q-21 0 -36 8t-28.5 18t-30.5 18t-41 8q-32 0 -57.5 -13.5t-41.5 -35t-21 -46.5z" />
    <glyph glyph-name="hungarumlaut" unicode="&#x2dd;" horiz-adv-x="0" 
d="M92 523l145 183l-123 30l-114 -188zM279 523l145 183l-124 30l-113 -188z" />
    <glyph glyph-name="gravecomb" unicode="&#x300;" horiz-adv-x="0" 
d="M180 536l85 42l-150 160l-115 -52z" />
    <glyph glyph-name="acutecomb" unicode="&#x301;" horiz-adv-x="0" 
d="M100 539l180 150l-115 52l-150 -160z" />
    <glyph glyph-name="uni0302" unicode="&#x302;" horiz-adv-x="0" 
d="M66 549l123 101h-36l123 -101l66 84l-170 124l-172 -124z" />
    <glyph glyph-name="tildecomb" unicode="&#x303;" horiz-adv-x="0" 
d="M72 576q0 11 6 23t18 20t29 8q23 0 40.5 -13.5t37.5 -27t49 -13.5q28 0 57 14t52 34t31 38l-71 74q-16 -24 -33 -38.5t-38 -14.5q-20 0 -32.5 8t-23.5 18t-27 18t-41 8q-30 0 -56.5 -13.5t-45 -35t-24.5 -46.5z" />
    <glyph glyph-name="uni0304" unicode="&#x304;" horiz-adv-x="0" 
d="M0 566h372v109h-372v-109z" />
    <glyph glyph-name="uni0306" unicode="&#x306;" horiz-adv-x="0" 
d="M164 546q49 0 86 18.5t57.5 51.5t20.5 76h-115q0 -17 -6.5 -30t-17 -21t-25.5 -8q-14 0 -25 8t-17 21t-6 30h-116q0 -43 20.5 -76t57.5 -51.5t86 -18.5z" />
    <glyph glyph-name="uni0307" unicode="&#x307;" horiz-adv-x="0" 
d="M88 532q38 0 63 23.5t25 58.5t-25 58.5t-63 23.5q-37 0 -62.5 -23.5t-25.5 -58.5t25.5 -58.5t62.5 -23.5z" />
    <glyph glyph-name="uni0308" unicode="&#x308;" horiz-adv-x="0" 
d="M88 550q40 0 64 22.5t24 59.5t-24 59.5t-64 22.5t-64 -22.5t-24 -59.5t24 -59.5t64 -22.5zM331 550q40 0 64 22.5t24 59.5t-24 59.5t-64 22.5q-39 0 -63.5 -22.5t-24.5 -59.5t24 -59.5t64 -22.5z" />
    <glyph glyph-name="uni030A" unicode="&#x30a;" horiz-adv-x="0" 
d="M128 520q37 0 66.5 16t46.5 43t17 60q0 34 -17 61t-46.5 43t-66.5 16q-55 0 -91.5 -34t-36.5 -86q0 -51 36.5 -85t91.5 -34zM128 590q-20 0 -34 14t-14 35q0 22 14 36t34 14q21 0 35 -14t14 -36q0 -21 -14 -35t-35 -14z" />
    <glyph glyph-name="uni030B" unicode="&#x30b;" horiz-adv-x="0" 
d="M92 523l145 183l-123 30l-114 -188zM279 523l145 183l-124 30l-113 -188z" />
    <glyph glyph-name="uni030C" unicode="&#x30c;" horiz-adv-x="0" 
d="M172 549l170 125l-66 83l-123 -101h36l-123 101l-66 -83z" />
    <glyph glyph-name="uni0312" unicode="&#x312;" horiz-adv-x="0" 
d="M151 498l88 259l-113 23l-126 -250z" />
    <glyph glyph-name="uni0326" unicode="&#x326;" horiz-adv-x="0" 
d="M82 -206l120 145l-108 41l-94 -156z" />
    <glyph glyph-name="uni0327" unicode="&#x327;" horiz-adv-x="0" 
d="M126 -216q50 0 83 30t33 75q0 33 -21 57t-53 24q-25 0 -47.5 -4.5t-39.5 -10.5l53 -12l61 125l-85 3l-69 -153q17 2 33.5 2h29.5q24 0 35 -7t11 -22q0 -16 -10.5 -25.5t-30.5 -9.5t-41 5t-39 14l-29 -62q25 -14 59 -21.5t67 -7.5z" />
    <glyph glyph-name="uni0328" unicode="&#x328;" horiz-adv-x="0" 
d="M117 -220q41 0 65 12.5t35 27.5l-33 69q-10 -10 -22.5 -15t-27.5 -5q-17 0 -26 9.5t-9 27.5q0 16 9 32t27 32t44 30l-41 25q-35 -18 -66.5 -39.5t-51.5 -47t-20 -58.5q0 -32 15.5 -54.5t42 -34t59.5 -11.5z" />
    <glyph glyph-name="uni0394" unicode="&#x394;" horiz-adv-x="600" 
d="M18 0l282 800l281 -800h-563zM186 115h227l-113 373z" />
    <glyph glyph-name="uni03A9" unicode="&#x3a9;" horiz-adv-x="600" 
d="M66 0v130l88 -12q-29 31 -48 63t-27.5 66t-8.5 70q0 69 30 123.5t82 86.5t118 32t118 -32t82 -86.5t30 -123.5q0 -36 -9 -70t-27.5 -66t-47.5 -63l88 12v-130h-209v103q24 20 42 47.5t27.5 59t9.5 62.5q0 38 -13 66t-36 44t-55 16q-31 0 -55 -16t-37 -44t-13 -66
q0 -31 10 -62.5t28 -59t42 -47.5v-103h-209z" />
    <glyph glyph-name="uni03BC" unicode="&#x3bc;" horiz-adv-x="570" 
d="M217 460h-158v-780h146v335q19 -11 34 -15t32 -4q30 0 53.5 16t39.5 41v-53h151v460h-151v-255q0 -27 -10 -46t-27.5 -29t-42.5 -10q-37 0 -52 22t-15 63v255z" />
    <glyph glyph-name="pi" unicode="&#x3c0;" horiz-adv-x="602" 
d="M90 430v-430h142v430h-142zM30 460v-125h532v125h-532zM340 430v-309q0 -60 22 -88t65.5 -35t107.5 -7v117q-15 0 -27 4t-19 18.5t-7 47.5v252h-142z" />
    <glyph glyph-name="uni0400" unicode="&#x400;" horiz-adv-x="603" 
d="M186 0h353v139h-353v-139zM186 561h353v139h-353v-139zM186 300h333v136h-333v-136zM74 700v-700h162v700h-162zM127 926l180 -150l85 43l-150 160z" />
    <glyph glyph-name="uni0401" unicode="&#x401;" horiz-adv-x="603" 
d="M186 0h353v139h-353v-139zM186 561h353v139h-353v-139zM186 300h333v136h-333v-136zM74 700v-700h162v700h-162zM341 858q0 -36 25.5 -59t61.5 -23q37 0 62.5 23t25.5 59t-25.5 59t-62.5 23q-36 0 -61.5 -23t-25.5 -59zM97 858q0 -36 26 -59t62 -23q37 0 62.5 23t25.5 59
t-25.5 59t-62.5 23q-36 0 -62 -23t-26 -59z" />
    <glyph glyph-name="uni0403" unicode="&#x403;" horiz-adv-x="506" 
d="M80 700v-700h169v549h247v151h-416zM468 926l-115 53l-150 -160l85 -43z" />
    <glyph glyph-name="uni040C" unicode="&#x40c;" horiz-adv-x="699" 
d="M74 700v-700h175v700h-175zM487 700l-287 -333l295 -367h205l-299 372l284 328h-198zM560 926l-115 53l-150 -160l85 -43z" />
    <glyph glyph-name="uni040D" unicode="&#x40d;" horiz-adv-x="794" 
d="M715 524l5 211l-641 -559l-5 -211zM236 700h-162v-735l162 166v569zM720 735l-163 -172v-563h163v735zM249 907l180 -150l85 43l-150 160z" />
    <glyph glyph-name="uni040E" unicode="&#x40e;" horiz-adv-x="605" 
d="M615 700h-170l-186 -416l73 -1l-159 417h-182l223 -487l-95 -213h167zM139 922q0 -40 19.5 -73.5t56.5 -53t89 -19.5q53 0 89.5 19.5t55.5 53t19 73.5h-99q0 -17 -8.5 -30.5t-23 -21t-33.5 -7.5q-20 0 -34.5 7.5t-23 21t-8.5 30.5h-99z" />
    <glyph glyph-name="uni0410" unicode="&#x410;" horiz-adv-x="735" 
d="M184 135h370l-11 129h-347zM367 443l99 -227l-6 -43l84 -173h192l-369 744l-368 -744h191l87 180l-8 37z" />
    <glyph glyph-name="uni0411" unicode="&#x411;" horiz-adv-x="672" 
d="M127 300h230q33 0 56 -9t35 -26.5t12 -45.5q0 -27 -12 -45t-35 -26.5t-56 -8.5h-230v-139h267q68 0 121.5 28t85 77.5t31.5 113.5q0 65 -31.5 113.5t-85 76t-121.5 27.5h-267v-136zM80 700v-700h172v561h327v139h-499z" />
    <glyph glyph-name="uni0412" unicode="&#x412;" horiz-adv-x="664" 
d="M200 348h131q73 0 128.5 20.5t88 59.5t32.5 94q0 60 -32.5 99.5t-88 59t-128.5 19.5h-257v-700h274q83 0 144 20.5t94.5 63.5t33.5 113q0 53 -23.5 90.5t-62.5 62t-87 35.5t-99 11h-148v-92h129q25 0 45.5 -4.5t36.5 -14.5t25 -26t9 -38q0 -34 -15.5 -53.5t-41.5 -28
t-59 -8.5h-86v438h70q43 0 67.5 -18t24.5 -54q0 -24 -11 -40.5t-31.5 -25.5t-49.5 -9h-113v-74z" />
    <glyph glyph-name="uni0413" unicode="&#x413;" horiz-adv-x="506" 
d="M80 700v-700h169v549h247v151h-416z" />
    <glyph glyph-name="uni0414" unicode="&#x414;" horiz-adv-x="882" 
d="M438 430l146 -400h195l-341 705l-340 -705h195zM669 0v-110h168v255h-797v-255h168v110h461z" />
    <glyph glyph-name="uni0415" unicode="&#x415;" horiz-adv-x="603" 
d="M186 0h353v139h-353v-139zM186 561h353v139h-353v-139zM186 300h333v136h-333v-136zM74 700v-700h162v700h-162z" />
    <glyph glyph-name="uni0416" unicode="&#x416;" horiz-adv-x="1085" 
d="M212 700h-198l290 -328l-305 -372h198l304 370zM457 700v-700h175v700h-175zM866 700l-278 -330l293 -370h205l-306 372l291 328h-205z" />
    <glyph glyph-name="uni0417" unicode="&#x417;" horiz-adv-x="668" 
d="M305 339q65 0 122 11t100 33.5t67.5 56.5t24.5 79q0 54 -31 98t-91 70t-148 26t-148.5 -28.5t-91.5 -78t-31 -111.5h155q0 25 14 43.5t40 29t61 10.5q34 0 57 -9.5t35 -26.5t12 -40q0 -25 -16.5 -45t-49 -31t-81.5 -11v-76zM353 -16q95 0 158.5 26.5t95.5 73t32 107.5
q0 71 -43.5 115.5t-119 65t-171.5 20.5v-86q58 0 94.5 -12.5t54.5 -34.5t18 -52q0 -45 -34 -66t-91 -21q-37 0 -67 11t-47 34t-19 57h-166q0 -46 18 -89t55.5 -77t95 -53t136.5 -19z" />
    <glyph glyph-name="uni0418" unicode="&#x418;" horiz-adv-x="794" 
d="M715 524l5 211l-641 -559l-5 -211zM236 700h-162v-735l162 166v569zM720 735l-163 -172v-563h163v735z" />
    <glyph glyph-name="uni0419" unicode="&#x419;" horiz-adv-x="794" 
d="M715 524l5 211l-641 -559l-5 -211zM236 700h-162v-735l162 166v569zM720 735l-163 -172v-563h163v735zM257 917q0 -40 19 -73.5t56 -53t89 -19.5q53 0 89.5 19.5t55.5 53t19 73.5h-99q0 -17 -8 -30.5t-22.5 -21t-34.5 -7.5q-19 0 -34 7.5t-23 21t-8 30.5h-99z" />
    <glyph glyph-name="uni041A" unicode="&#x41a;" horiz-adv-x="699" 
d="M74 700v-700h175v700h-175zM487 700l-287 -333l295 -367h205l-299 372l284 328h-198z" />
    <glyph glyph-name="uni041B" unicode="&#x41b;" horiz-adv-x="770" 
d="M690 700h-575v-414q0 -32 -7 -59t-20.5 -45.5t-33 -28.5t-44.5 -10v-143q97 0 158 32.5t89.5 99t28.5 164.5v253h232v-549h172v700z" />
    <glyph glyph-name="uni041C" unicode="&#x41c;" horiz-adv-x="891" 
d="M254 357l191 -292l192 292l42 -357h178l-113 735l-299 -427l-298 427l-113 -735h178z" />
    <glyph glyph-name="uni041D" unicode="&#x41d;" horiz-adv-x="786" 
d="M121 293h529v152h-529v-152zM544 700v-700h169v700h-169zM74 700v-700h169v700h-169z" />
    <glyph glyph-name="uni041E" unicode="&#x41e;" horiz-adv-x="821" 
d="M213 350q0 62 24.5 109.5t69 74.5t104.5 27q61 0 105 -27t68 -74.5t24 -109.5t-24.5 -109.5t-69 -74.5t-103.5 -27q-60 0 -104.5 27t-69 74.5t-24.5 109.5zM34 350q0 -81 27.5 -149t78 -118t119.5 -77.5t152 -27.5q82 0 151 27.5t119.5 77.5t78 118t27.5 149t-28 148
t-79 116t-119.5 75.5t-149.5 26.5q-80 0 -149 -26.5t-120 -75.5t-79.5 -116t-28.5 -148z" />
    <glyph glyph-name="uni041F" unicode="&#x41f;" horiz-adv-x="771" 
d="M519 549v-549h172v700h-611v-700h172v549h267z" />
    <glyph glyph-name="uni0420" unicode="&#x420;" horiz-adv-x="623" 
d="M74 700v-700h169v700h-169zM180 561h137q51 0 80 -23t29 -67q0 -43 -29 -66t-80 -23h-137v-139h137q89 0 149.5 27.5t91.5 79t31 121.5q0 72 -31 123t-91.5 78.5t-149.5 27.5h-137v-139z" />
    <glyph glyph-name="uni0421" unicode="&#x421;" horiz-adv-x="701" 
d="M218 350q0 65 29 111t76.5 70t104.5 24q50 0 88 -12.5t68 -34t53 -45.5v182q-42 33 -92 52t-127 19q-84 0 -155 -26t-122 -75t-79 -116t-28 -149t28 -149t79 -116t122 -75t155 -26q77 0 127 19t92 52v182q-23 -24 -53 -45t-68 -34t-88 -13q-57 0 -104.5 24t-76.5 70.5
t-29 110.5z" />
    <glyph glyph-name="uni0422" unicode="&#x422;" horiz-adv-x="561" 
d="M4 549h192v-549h169v549h193v151h-554v-151z" />
    <glyph glyph-name="uni0423" unicode="&#x423;" horiz-adv-x="618" 
d="M627 700h-176l-186 -416l73 -1l-158 417h-189l229 -487l-95 -213h173z" />
    <glyph glyph-name="uni0424" unicode="&#x424;" horiz-adv-x="932" 
d="M380 700v-700h172v700h-172zM720 350q0 -45 -23 -72.5t-64.5 -39t-97.5 -11.5h-138q-56 0 -97.5 11.5t-64.5 39t-23 72.5q0 46 23 73t64.5 38.5t97.5 11.5h138q56 0 97.5 -11.5t64.5 -38.5t23 -73zM892 350q0 85 -43 145t-117 92.5t-166 32.5h-200q-92 0 -166 -32.5
t-117 -92.5t-43 -145q0 -84 43 -144.5t117 -93t166 -32.5h200q92 0 166 32.5t117 93t43 144.5z" />
    <glyph glyph-name="uni0425" unicode="&#x425;" horiz-adv-x="685" 
d="M458 700l-112 -203l-108 203h-209l215 -341l-240 -359h209l132 233l128 -233h209l-235 359l220 341h-209z" />
    <glyph glyph-name="uni0426" unicode="&#x426;" horiz-adv-x="859" 
d="M246 151v549h-172v-700h590v-135h162v286h-110v549h-172v-549h-298z" />
    <glyph glyph-name="uni0427" unicode="&#x427;" horiz-adv-x="718" 
d="M309 221h217v150h-168zM462 700v-700h176v700h-176zM244 700h-170v-232q0 -67 27 -123.5t79.5 -90t128.5 -33.5l49 150q-33 0 -59 13.5t-40.5 40t-14.5 65.5v210z" />
    <glyph glyph-name="uni0428" unicode="&#x428;" horiz-adv-x="1081" 
d="M832 151h-210v549h-163v-549h-210v549h-169v-700h921v700h-169v-549z" />
    <glyph glyph-name="uni0429" unicode="&#x429;" horiz-adv-x="1151" 
d="M832 151h-210v549h-163v-549h-210v549h-169v-700h869v-135h162v286h-110v549h-169v-549z" />
    <glyph glyph-name="uni042A" unicode="&#x42a;" horiz-adv-x="736" 
d="M293 318h137q34 0 58.5 -10t37.5 -30t13 -49t-13 -49.5t-37.5 -30.5t-58.5 -10h-137v-139h137q89 0 149.5 27.5t91.5 79t31 122.5t-31 122t-91.5 78.5t-149.5 27.5h-137v-139zM190 549v-549h169v700h-349v-151h180z" />
    <glyph glyph-name="uni042B" unicode="&#x42b;" horiz-adv-x="908" 
d="M662 700v-700h172v700h-172zM74 700v-700h169v700h-169zM180 318h137q34 0 58.5 -10t37.5 -30t13 -49t-13 -49.5t-37.5 -30.5t-58.5 -10h-137v-139h137q89 0 149.5 27.5t91.5 79t31 122.5t-31 122t-91.5 78.5t-149.5 27.5h-137v-139z" />
    <glyph glyph-name="uni042C" unicode="&#x42c;" horiz-adv-x="623" 
d="M74 700v-700h169v700h-169zM180 318h137q34 0 58.5 -10t37.5 -30t13 -49t-13 -49.5t-37.5 -30.5t-58.5 -10h-137v-139h137q89 0 149.5 27.5t91.5 79t31 122.5t-31 122t-91.5 78.5t-149.5 27.5h-137v-139z" />
    <glyph glyph-name="uni042D" unicode="&#x42d;" horiz-adv-x="701" 
d="M137 282h373v136h-373v-136zM501 350q0 -64 -33.5 -111.5t-86 -74t-108.5 -26.5q-49 0 -89.5 12.5t-70 31t-49.5 37.5v-164q42 -33 92.5 -52t126.5 -19q84 0 154.5 26t121.5 75t79.5 116t28.5 149t-28.5 149t-79.5 116t-121.5 75t-154.5 26q-76 0 -126.5 -19t-92.5 -52
v-164q20 19 49.5 37.5t70 31t89.5 12.5q56 0 108.5 -26t86 -73.5t33.5 -112.5z" />
    <glyph glyph-name="uni042E" unicode="&#x42e;" horiz-adv-x="1142" 
d="M121 293h338v152h-338v-152zM74 700v-700h169v700h-169zM533 350q0 62 25 109.5t69.5 74.5t103.5 27q62 0 106 -27t68 -74.5t24 -109.5t-25 -109.5t-69 -74.5t-104 -27q-59 0 -103.5 27t-69.5 74.5t-25 109.5zM355 350q0 -81 27.5 -149t78 -118t119.5 -77.5t151 -27.5
q83 0 152 27.5t119.5 77.5t78 118t27.5 149t-28 148t-79 116t-119.5 75.5t-150.5 26.5q-79 0 -148 -26.5t-120 -75.5t-79.5 -116t-28.5 -148z" />
    <glyph glyph-name="uni042F" unicode="&#x42f;" horiz-adv-x="647" 
d="M398 317h-175l-219 -317h198zM573 700h-169v-700h169v700zM467 557v143h-149q-89 0 -149.5 -29t-91.5 -80.5t-31 -119.5q0 -67 31 -118.5t91.5 -80.5t149.5 -29h149v131h-137q-33 0 -58 10.5t-38 31t-13 49.5t13 49.5t38 31.5t58 11h137z" />
    <glyph glyph-name="uni0430" unicode="&#x430;" horiz-adv-x="544" 
d="M176 137q0 19 9.5 32t28 20.5t44.5 7.5q39 0 66.5 -9.5t53.5 -28.5v71q-10 11 -33.5 22.5t-55 19t-66.5 7.5q-60 0 -105 -18t-69.5 -51t-24.5 -79q0 -45 21.5 -76.5t59.5 -48t86 -16.5t86.5 16.5t61 48t22.5 75.5l-16 56q0 -37 -14 -58t-37.5 -30t-51.5 -9q-18 0 -33 5.5
t-24 16t-9 26.5zM117 318q11 7 33 16.5t51.5 16.5t62.5 7q38 0 59.5 -17.5t21.5 -46.5v-294h145v324q0 48 -27.5 81t-76 50.5t-110.5 17.5t-116.5 -17t-93.5 -36z" />
    <glyph glyph-name="uni0431" unicode="&#x431;" horiz-adv-x="608" 
d="M311 346q29 0 53.5 -14t39 -40t14.5 -62t-15 -61.5t-39 -39.5t-54 -14q-29 0 -53.5 14t-39.5 39.5t-15 61.5l-167 60q0 -99 35.5 -166t98 -100.5t141.5 -33.5q81 0 139.5 31t91 85.5t32.5 123.5q0 70 -31.5 124t-88 85t-130.5 31zM135 230h67q0 28 9 49.5t24.5 36.5
t35 22.5t40.5 7.5l12 124q-43 0 -77.5 -16.5t-59.5 -47.5t-38 -75.5t-13 -100.5zM35 290l157 -59l-25 109q0 50 13.5 94.5t48 79.5t95.5 58q55 21 98.5 52.5t70.5 71.5t32 84h-145q-7 -36 -43.5 -63t-104.5 -55q-78 -32 -121 -83.5t-59.5 -123t-16.5 -165.5z" />
    <glyph glyph-name="uni0432" unicode="&#x432;" horiz-adv-x="524" 
d="M162 240v-54h133q16 0 27 -4t17.5 -10t9.5 -14t3 -17q0 -17 -12.5 -31.5t-44.5 -14.5h-133v-95h184q79 0 113.5 36.5t34.5 88.5q0 45 -22 70t-60 35t-86 10h-164zM162 220h154q43 0 78.5 12.5t57.5 38t22 64.5q0 45 -22 72.5t-57.5 40t-78.5 12.5h-154v-95h123
q23 0 35 -12.5t12 -30.5q0 -8 -3 -16t-9 -14t-14.5 -9.5t-20.5 -3.5h-123v-59zM75 460v-460h145v460h-145z" />
    <glyph glyph-name="uni0433" unicode="&#x433;" horiz-adv-x="358" 
d="M61 460v-460h149v335h146v125h-295z" />
    <glyph glyph-name="uni0434" unicode="&#x434;" horiz-adv-x="705" 
d="M350 279l110 -249l146 31l-256 434l-256 -434l146 -31zM518 0v-90h142v208h-620v-208h147v90h331z" />
    <glyph glyph-name="uni0435" unicode="&#x435;" 
d="M117 198h420q2 12 2 22.5v16.5q0 73 -28.5 125t-84 80t-135.5 28q-75 0 -128.5 -24t-85 -67t-41.5 -100q-2 -12 -3 -24t-1 -25q0 -69 30.5 -123.5t89 -85.5t141.5 -31q67 0 113.5 16.5t78.5 47t55 72.5l-135 33q-11 -19 -27 -32.5t-37.5 -20.5t-49.5 -7q-30 0 -54 13
t-38.5 42t-14.5 76l2 24q0 37 13 62.5t35.5 39t53.5 13.5q27 0 45.5 -10.5t29 -29.5t14.5 -47h-260v-84z" />
    <glyph glyph-name="uni0436" unicode="&#x436;" horiz-adv-x="880" 
d="M685 460l-200 -190l220 -270h175l-218 266l198 194h-175zM512 460h-144v-460h144v460zM195 460h-175l198 -194l-218 -266h175l220 270z" />
    <glyph glyph-name="uni0437" unicode="&#x437;" horiz-adv-x="536" 
d="M272 230q102 -4 150.5 26.5t48.5 81.5q0 38 -24.5 67.5t-67.5 47t-98 17.5q-59 0 -102.5 -20.5t-68 -57t-24.5 -85.5h137q1 16 8 28t20.5 19t30.5 7q23 0 37 -11.5t14 -30.5t-14.5 -31.5t-46.5 -12.5v-45zM279 -10q61 0 109 18t75.5 50.5t27.5 75.5q0 62 -57 96.5
t-162 29.5v-57q26 0 43.5 -6.5t26 -18t8.5 -28.5t-9 -28.5t-25 -18t-38 -6.5q-29 0 -48 15.5t-27 44.5h-143q8 -76 64.5 -121.5t154.5 -45.5z" />
    <glyph glyph-name="uni0438" unicode="&#x438;" horiz-adv-x="592" 
d="M525 330l5 165l-464 -365l-5 -165zM207 460h-146v-495l146 141v354zM530 495l-145 -141v-354h145v495z" />
    <glyph glyph-name="uni0439" unicode="&#x439;" horiz-adv-x="592" 
d="M525 330l5 165l-464 -365l-5 -165zM207 460h-146v-495l146 141v354zM530 495l-145 -141v-354h145v495zM139 695q0 -40 19 -73.5t56 -53t89 -19.5q53 0 89.5 19.5t55.5 53t19 73.5h-99q0 -17 -8 -30.5t-23 -21t-34 -7.5q-20 0 -34.5 7.5t-22.5 21t-8 30.5h-99z" />
    <glyph glyph-name="uni043A" unicode="&#x43a;" horiz-adv-x="577" 
d="M58 460v-460h145v460h-145zM370 460l-197 -190l220 -270h177l-216 270l196 190h-180z" />
    <glyph glyph-name="uni043B" unicode="&#x43b;" horiz-adv-x="623" 
d="M543 460h-460v-263q0 -39 -21.5 -50.5t-51.5 -11.5v-135q83 0 130.5 17.5t67.5 53t20 89.5v163h170v-323h145v460z" />
    <glyph glyph-name="uni043C" unicode="&#x43c;" horiz-adv-x="657" 
d="M500 0h152l-139 495l-76 -180zM297 131l30 -162l196 323l-10 203zM327 -31l30 162l-213 364l-10 -203zM5 0h152l63 315l-76 180z" />
    <glyph glyph-name="uni043D" unicode="&#x43d;" horiz-adv-x="615" 
d="M106 186h372v113h-372v-113zM410 460v-460h145v460h-145zM59 460v-460h146v460h-146z" />
    <glyph glyph-name="uni043E" unicode="&#x43e;" horiz-adv-x="589" 
d="M32 230q0 -72 34 -126t94 -84t135 -30t134.5 30t94 84t34.5 126q0 73 -34.5 127t-94 84t-134.5 30t-135 -30t-94 -84t-34 -127zM187 230q0 36 15 62t39 40t54 14q29 0 53.5 -14t39 -40t14.5 -62t-14.5 -61.5t-39 -39.5t-53.5 -14q-30 0 -54 14t-39 39.5t-15 61.5z" />
    <glyph glyph-name="uni043F" unicode="&#x43f;" 
d="M515 460h-456v-460h146v329h165v-329h145v460z" />
    <glyph glyph-name="uni0440" unicode="&#x440;" horiz-adv-x="617" 
d="M209 -220v680h-151v-680h151zM585 230q0 81 -31.5 135.5t-81 82.5t-106.5 28q-60 0 -103.5 -30.5t-66.5 -85.5t-23 -130q0 -74 23 -129.5t66.5 -86t103.5 -30.5q57 0 106.5 28t81 83t31.5 135zM426 230q0 -36 -15 -61t-40 -38t-55 -13q-26 0 -50.5 12.5t-40.5 37.5
t-16 62t16 62t40.5 37.5t50.5 12.5q30 0 55 -13t40 -38t15 -61z" />
    <glyph glyph-name="uni0441" unicode="&#x441;" horiz-adv-x="494" 
d="M186 230q0 34 16 61t44.5 43t61.5 16q25 0 51 -8t48.5 -23t36.5 -37v148q-24 17 -60 28.5t-88 11.5q-76 0 -136.5 -30t-95 -83.5t-34.5 -126.5q0 -72 34.5 -126t95 -84t136.5 -30q52 0 88 11.5t60 30.5v147q-14 -22 -35.5 -37t-47 -23.5t-53.5 -8.5q-33 0 -61.5 15
t-44.5 41.5t-16 63.5z" />
    <glyph glyph-name="uni0442" unicode="&#x442;" horiz-adv-x="333" 
d="M5 460v-125h323v125h-323zM94 440v-440h145v440h-145z" />
    <glyph glyph-name="uni0443" unicode="&#x443;" horiz-adv-x="521" 
d="M530 460h-155l-147 -368l78 -1l-149 369h-166l199 -423l-112 -257h152z" />
    <glyph glyph-name="uni0444" unicode="&#x444;" horiz-adv-x="667" 
d="M262 560v-660h142v660h-142zM32 230q0 -72 36 -126t103.5 -84t161.5 -30q95 0 162.5 30t103.5 84t36 126q0 73 -36 127t-103.5 84t-162.5 30q-94 0 -161.5 -30t-103.5 -84t-36 -127zM169 230q0 36 16.5 62t53 40t94.5 14t94.5 -14t53.5 -40t17 -62t-17 -61.5t-53.5 -39.5
t-94.5 -14t-94.5 14t-53 39.5t-16.5 61.5z" />
    <glyph glyph-name="uni0445" unicode="&#x445;" horiz-adv-x="532" 
d="M354 460l-86 -121l-84 121h-174l179 -224l-189 -236h174l94 134l96 -134h168l-186 236l176 224h-168z" />
    <glyph glyph-name="uni0446" unicode="&#x446;" horiz-adv-x="621" 
d="M521 125v335h-151v-335h-159v335h-152v-460h401v-102h141v227h-80z" />
    <glyph glyph-name="uni0447" unicode="&#x447;" horiz-adv-x="547" 
d="M230 115h157v125h-114zM330 460v-460h151v460h-151zM201 460h-151v-132q0 -67 16 -114.5t55.5 -73t108.5 -25.5l43 125q-25 0 -41 7.5t-23.5 24t-7.5 44.5v144z" />
    <glyph glyph-name="uni0448" unicode="&#x448;" horiz-adv-x="837" 
d="M491 125v335h-145v-335h-141v335h-146v-460h718v460h-145v-335h-141z" />
    <glyph glyph-name="uni0449" unicode="&#x449;" horiz-adv-x="876" 
d="M491 125v335h-145v-335h-141v335h-146v-460h656v-102h141v227h-80v335h-145v-335h-140z" />
    <glyph glyph-name="uni044A" unicode="&#x44a;" horiz-adv-x="612" 
d="M254 207h117q25 0 38.5 -12.5t13.5 -32.5q0 -14 -6 -24.5t-18 -15.5t-28 -5h-117v-117h143q48 0 86 19.5t60 56.5t22 86q0 74 -48.5 108.5t-119.5 34.5h-143v-98zM145 335v-335h139v460h-279v-125h140z" />
    <glyph glyph-name="uni044B" unicode="&#x44b;" horiz-adv-x="763" 
d="M552 460v-460h152v460h-152zM59 460v-460h152v460h-152zM178 207h116q26 0 39.5 -12.5t13.5 -32.5q0 -14 -6.5 -24.5t-18 -15.5t-28.5 -5h-116v-117h143q48 0 86 19.5t60 56.5t22 86q0 74 -48.5 108.5t-119.5 34.5h-143v-98z" />
    <glyph glyph-name="uni044C" unicode="&#x44c;" horiz-adv-x="545" 
d="M66 460v-460h151v460h-151zM184 207h116q26 0 39.5 -12.5t13.5 -32.5q0 -14 -6.5 -24.5t-18 -15.5t-28.5 -5h-116v-117h143q48 0 86 19.5t60 56.5t22 86q0 74 -48.5 108.5t-119.5 34.5h-143v-98z" />
    <glyph glyph-name="uni044D" unicode="&#x44d;" horiz-adv-x="494" 
d="M112 279v-98h267l27 98h-294zM308 230q0 -46 -16.5 -77t-44 -46t-62.5 -15q-28 0 -53.5 8t-46.5 23.5t-35 36.5v-128q24 -19 60 -30.5t88 -11.5q77 0 136.5 30t94.5 84t35 126q0 73 -35 126.5t-94.5 83.5t-136.5 30q-52 0 -88 -11.5t-60 -28.5v-130q14 23 36.5 38
t48.5 22.5t50 7.5q35 0 62.5 -16t44 -47t16.5 -75z" />
    <glyph glyph-name="uni044E" unicode="&#x44e;" horiz-adv-x="821" 
d="M106 186h270v113h-270v-113zM59 460v-460h146v460h-146zM263 230q0 -72 34.5 -126t94 -84t134.5 -30t134.5 30t94 84t34.5 126q0 73 -34.5 127t-94 84t-134.5 30t-134.5 -30t-94 -84t-34.5 -127zM419 230q0 36 14.5 62t38.5 40t54 14q29 0 53.5 -14t39 -40t14.5 -62
t-14.5 -61.5t-39 -39.5t-53.5 -14q-30 0 -54 14t-38.5 39.5t-14.5 61.5z" />
    <glyph glyph-name="uni044F" unicode="&#x44f;" horiz-adv-x="545" 
d="M197 0l126 209h-143l-139 -209h156zM504 0v460h-151v-460h151zM405 266h-122q-19 0 -32.5 3.5t-20.5 12t-7 21.5q0 14 7 22t20.5 11.5t32.5 3.5h122v120h-143q-47 0 -90.5 -14.5t-70 -45.5t-26.5 -84q0 -52 26.5 -85.5t70 -49.5t90.5 -16h143v101z" />
    <glyph glyph-name="uni0450" unicode="&#x450;" 
d="M117 198h420q2 12 2 22.5v16.5q0 73 -28.5 125t-84 80t-135.5 28q-75 0 -128.5 -24t-85 -67t-41.5 -100q-2 -12 -3 -24t-1 -25q0 -69 30.5 -123.5t89 -85.5t141.5 -31q67 0 113.5 16.5t78.5 47t55 72.5l-135 33q-11 -19 -27 -32.5t-37.5 -20.5t-49.5 -7q-30 0 -54 13
t-38.5 42t-14.5 76l2 24q0 37 13 62.5t35.5 39t53.5 13.5q27 0 45.5 -10.5t29 -29.5t14.5 -47h-260v-84zM122 681l180 -150l86 42l-150 160z" />
    <glyph glyph-name="uni0451" unicode="&#x451;" 
d="M117 198h420q2 12 2 22.5v16.5q0 73 -28.5 125t-84 80t-135.5 28q-75 0 -128.5 -24t-85 -67t-41.5 -100q-2 -12 -3 -24t-1 -25q0 -69 30.5 -123.5t89 -85.5t141.5 -31q67 0 113.5 16.5t78.5 47t55 72.5l-135 33q-11 -19 -27 -32.5t-37.5 -20.5t-49.5 -7q-30 0 -54 13
t-38.5 42t-14.5 76l2 24q0 37 13 62.5t35.5 39t53.5 13.5q27 0 45.5 -10.5t29 -29.5t14.5 -47h-260v-84zM325 612q0 -35 25.5 -58t62.5 -23q36 0 62 23t26 58q0 36 -26 59t-62 23q-37 0 -62.5 -23t-25.5 -59zM81 612q0 -35 26 -58t62 -23q37 0 62.5 23t25.5 58
q0 36 -25.5 59t-62.5 23q-36 0 -62 -23t-26 -59z" />
    <glyph glyph-name="uni0453" unicode="&#x453;" horiz-adv-x="358" 
d="M61 460v-460h149v335h146v125h-295zM389 681l-115 52l-150 -160l85 -42z" />
    <glyph glyph-name="uni045C" unicode="&#x45c;" horiz-adv-x="440" 
d="M58 460v-460h145v460h-145zM370 460l-197 -190l220 -270h177l-216 270l196 190h-180zM484 681l-115 52l-150 -160l85 -42z" />
    <glyph glyph-name="uni045D" unicode="&#x45d;" horiz-adv-x="592" 
d="M525 330l5 165l-464 -365l-5 -165zM207 460h-146v-495l146 141v354zM530 495l-145 -141v-354h145v495zM131 705l180 -150l85 42l-150 160z" />
    <glyph glyph-name="uni045E" unicode="&#x45e;" horiz-adv-x="440" 
d="M530 460h-155l-147 -368l78 -1l-149 369h-166l199 -423l-112 -257h152zM96 677q0 -40 19 -73.5t56 -53t89 -19.5q53 0 89.5 19.5t56 53t19.5 73.5h-99q0 -18 -8.5 -31t-23 -21t-34.5 -8q-19 0 -33.5 8t-23 21t-8.5 31h-99z" />
    <glyph glyph-name="Wgrave" unicode="&#x1e80;" horiz-adv-x="1065" 
d="M532 795l85 42l-150 160l-115 -52zM724 301l-192 434l-190 -434l-138 399h-200l303 -741l225 422l226 -422l303 741h-201z" />
    <glyph glyph-name="wgrave" unicode="&#x1e81;" horiz-adv-x="761" 
d="M378 555l85 42l-150 160l-115 -52zM-7 460l237 -489l149 274l152 -274l237 489h-158l-96 -236l-136 271l-131 -271l-96 236h-158z" />
    <glyph glyph-name="Wacute" unicode="&#x1e82;" horiz-adv-x="1065" 
d="M532 795l180 150l-115 52l-150 -160zM724 301l-192 434l-190 -434l-138 399h-200l303 -741l225 422l226 -422l303 741h-201z" />
    <glyph glyph-name="wacute" unicode="&#x1e83;" horiz-adv-x="761" 
d="M378 555l180 150l-115 52l-150 -160zM-7 460l237 -489l149 274l152 -274l237 489h-158l-96 -236l-136 271l-131 -271l-96 236h-158z" />
    <glyph glyph-name="Wdieresis" unicode="&#x1e84;" horiz-adv-x="1065" 
d="M566 877q0 -36 26 -59t62 -23q37 0 62.5 23t25.5 59t-25.5 59t-62.5 23q-36 0 -62 -23t-26 -59zM323 877q0 -36 25.5 -59t62.5 -23q36 0 62 23t26 59t-26 59t-62 23q-37 0 -62.5 -23t-25.5 -59zM724 301l-192 434l-190 -434l-138 399h-200l303 -741l225 422l226 -422
l303 741h-201z" />
    <glyph glyph-name="wdieresis" unicode="&#x1e85;" horiz-adv-x="761" 
d="M412 637q0 -36 26 -59t62 -23q37 0 62.5 23t25.5 59t-25.5 59t-62.5 23q-36 0 -62 -23t-26 -59zM169 637q0 -36 25.5 -59t62.5 -23q36 0 62 23t26 59t-26 59t-62 23q-37 0 -62.5 -23t-25.5 -59zM-7 460l237 -489l149 274l152 -274l237 489h-158l-96 -236l-136 271
l-131 -271l-96 236h-158z" />
    <glyph glyph-name="uni1E86" unicode="&#x1e86;" horiz-adv-x="1065" 
d="M444 877q0 -36 26 -59t62 -23q37 0 62.5 23t25.5 59t-25.5 59t-62.5 23q-36 0 -62 -23t-26 -59zM724 301l-192 434l-190 -434l-138 399h-200l303 -741l225 422l226 -422l303 741h-201z" />
    <glyph glyph-name="uni1E87" unicode="&#x1e87;" horiz-adv-x="761" 
d="M290 637q0 -36 26 -59t62 -23q37 0 62.5 23t25.5 59t-25.5 59t-62.5 23q-36 0 -62 -23t-26 -59zM-7 460l237 -489l149 274l152 -274l237 489h-158l-96 -236l-136 271l-131 -271l-96 236h-158z" />
    <glyph glyph-name="uni1E88" unicode="&#x1e88;" horiz-adv-x="1065" 
d="M444 -183q0 -36 26 -59t62 -23q37 0 62.5 23t25.5 59t-25.5 59t-62.5 23q-36 0 -62 -23t-26 -59zM724 301l-192 434l-190 -434l-138 399h-200l303 -741l225 422l226 -422l303 741h-201z" />
    <glyph glyph-name="uni1E89" unicode="&#x1e89;" horiz-adv-x="761" 
d="M292 -170q0 -36 26 -59t62 -23q37 0 62.5 23t25.5 59t-25.5 59t-62.5 23q-36 0 -62 -23t-26 -59zM-7 460l237 -489l149 274l152 -274l237 489h-158l-96 -236l-136 271l-131 -271l-96 236h-158z" />
    <glyph glyph-name="uni1E9E" unicode="&#x1e9e;" horiz-adv-x="814" 
d="M540 -12q-63 0 -124 12.5t-111 33.5l38 137q43 -20 82 -31t73 -11q26 0 48 6t35 20t13 36q0 26 -14.5 42t-36.5 27t-44 23t-36.5 29.5t-14.5 45.5q0 21 8.5 36.5t21 27t25.5 22t21.5 23t8.5 28.5q0 18 -12.5 33.5t-36 24.5t-57.5 9q-57 0 -96 -24.5t-58.5 -72
t-19.5 -115.5l1 -352h-174v368q0 80 20 144.5t62.5 110.5t109 70.5t158.5 24.5q95 0 158.5 -24t95.5 -65t32 -91q0 -30 -8 -53.5t-20 -41.5t-24.5 -32.5t-20.5 -26t-8 -22.5q0 -14 13.5 -24t34.5 -21.5t41.5 -28.5t34 -43.5t13.5 -68.5q0 -58 -27.5 -99.5t-79.5 -64
t-125 -22.5z" />
    <glyph glyph-name="Ygrave" unicode="&#x1ef2;" horiz-adv-x="660" 
d="M330 777l85 42l-150 160l-115 -52zM467 700l-137 -263l-137 263h-194l245 -416v-284h172v285l245 415h-194z" />
    <glyph glyph-name="ygrave" unicode="&#x1ef3;" horiz-adv-x="521" 
d="M260 531l85 42l-150 160l-115 -52zM530 460h-155l-147 -368l78 -1l-149 369h-166l199 -423l-112 -257h152z" />
    <glyph glyph-name="uni2010" unicode="&#x2010;" horiz-adv-x="222" 
d="M5 172h212v131h-212v-131z" />
    <glyph glyph-name="figuredash" unicode="&#x2012;" horiz-adv-x="627" 
d="M70 172h478v131h-478v-131z" />
    <glyph glyph-name="endash" unicode="&#x2013;" horiz-adv-x="783" 
d="M70 172h637v131h-637v-131z" />
    <glyph glyph-name="emdash" unicode="&#x2014;" horiz-adv-x="940" 
d="M70 172h797v131h-797v-131z" />
    <glyph glyph-name="quoteleft" unicode="&#x2018;" horiz-adv-x="331" 
d="M227 445l54 255h-108l-103 -255h157z" />
    <glyph glyph-name="quoteright" unicode="&#x2019;" horiz-adv-x="331" 
d="M104 700l-54 -255h108l103 255h-157z" />
    <glyph glyph-name="quotesinglbase" unicode="&#x201a;" horiz-adv-x="331" 
d="M114 80l-54 -255h108l103 255h-157z" />
    <glyph glyph-name="quotedblleft" unicode="&#x201c;" horiz-adv-x="562" 
d="M227 445l54 255h-108l-103 -255h157zM458 445l54 255h-108l-103 -255h157z" />
    <glyph glyph-name="quotedblright" unicode="&#x201d;" horiz-adv-x="562" 
d="M104 700l-54 -255h108l103 255h-157zM335 700l-54 -255h108l103 255h-157z" />
    <glyph glyph-name="quotedblbase" unicode="&#x201e;" horiz-adv-x="562" 
d="M104 80l-54 -255h108l103 255h-157zM335 80l-54 -255h108l103 255h-157z" />
    <glyph glyph-name="dagger" unicode="&#x2020;" horiz-adv-x="632" 
d="M90 540v-125h452v125h-452zM245 700v-850h142v850h-142z" />
    <glyph glyph-name="daggerdbl" unicode="&#x2021;" horiz-adv-x="632" 
d="M90 157v-124h452v124h-452zM90 540v-125h452v125h-452zM245 700v-850h142v850h-142z" />
    <glyph glyph-name="bullet" unicode="&#x2022;" horiz-adv-x="300" 
d="M67 443q0 -38 27 -65t67 -27q42 0 68 27t26 65t-26 65t-68 27q-40 0 -67 -27t-27 -65z" />
    <glyph glyph-name="ellipsis" unicode="&#x2026;" horiz-adv-x="925" 
d="M67 68q0 -38 27 -65t67 -27q42 0 68 27t26 65t-26 65t-68 27q-40 0 -67 -27t-27 -65zM367 68q0 -38 27 -65t67 -27q42 0 68 27t26 65t-26 65t-68 27q-40 0 -67 -27t-27 -65zM667 68q0 -38 27 -65t67 -27q42 0 68 27t26 65t-26 65t-68 27q-40 0 -67 -27t-27 -65z" />
    <glyph glyph-name="perthousand" unicode="&#x2030;" horiz-adv-x="1373" 
d="M973 166q0 -51 24.5 -93t67.5 -67t97 -25t96.5 25t67.5 67t25 93t-25 93t-67.5 67t-96.5 25t-97 -25t-67.5 -67t-24.5 -93zM1097 166q0 19 8.5 34t23 24t33.5 9t33.5 -9t22.5 -24.5t8 -33.5q0 -17 -8 -32.5t-22.5 -24.5t-33.5 -9t-33.5 9t-23 24.5t-8.5 32.5zM23 534
q0 -50 24.5 -92.5t67.5 -67t97 -24.5t96.5 24.5t67.5 67t25 92.5q0 52 -25 93.5t-67.5 66.5t-96.5 25t-97 -25t-67.5 -66.5t-24.5 -93.5zM147 535q0 18 8.5 33t23 24t32.5 9q20 0 34.5 -9t22.5 -24t8 -34q0 -17 -8 -32.5t-22.5 -24.5t-34.5 -9q-18 0 -32.5 9t-23 24.5
t-8.5 33.5zM518 166q0 -51 25 -93t68 -67t96 -25q54 0 97 25t67.5 67t24.5 93t-24.5 93t-67.5 67t-97 25q-53 0 -96 -25t-68 -67t-25 -93zM643 166q0 19 8 34t22.5 24t33.5 9t33.5 -9t23 -24.5t8.5 -33.5q0 -17 -8.5 -32.5t-23 -24.5t-33.5 -9t-33.5 9t-22.5 24.5t-8 32.5z
M650 700l-537 -700h156l537 700h-156z" />
    <glyph glyph-name="uni2031" unicode="&#x2031;" horiz-adv-x="1828" 
d="M1427 166q0 -51 25 -93t68 -67t96 -25q54 0 97 25t67.5 67t24.5 93t-24.5 93t-67.5 67t-97 25q-53 0 -96 -25t-68 -67t-25 -93zM1552 166q0 19 8 34t22.5 24t33.5 9q20 0 34 -9t22.5 -24.5t8.5 -33.5q0 -17 -8.5 -32.5t-22.5 -24.5t-34 -9q-19 0 -33.5 9t-22.5 24.5
t-8 32.5zM973 166q0 -51 24.5 -93t67.5 -67t97 -25t96.5 25t67.5 67t25 93t-25 93t-67.5 67t-96.5 25t-97 -25t-67.5 -67t-24.5 -93zM1097 166q0 19 8.5 34t23 24t33.5 9t33.5 -9t22.5 -24.5t8 -33.5q0 -17 -8 -32.5t-22.5 -24.5t-33.5 -9t-33.5 9t-23 24.5t-8.5 32.5z
M23 534q0 -50 24.5 -92.5t67.5 -67t97 -24.5t96.5 24.5t67.5 67t25 92.5q0 52 -25 93.5t-67.5 66.5t-96.5 25t-97 -25t-67.5 -66.5t-24.5 -93.5zM147 535q0 18 8.5 33t23 24t32.5 9q20 0 34.5 -9t22.5 -24t8 -34q0 -17 -8 -32.5t-22.5 -24.5t-34.5 -9q-18 0 -32.5 9
t-23 24.5t-8.5 33.5zM518 166q0 -51 25 -93t68 -67t96 -25q54 0 97 25t67.5 67t24.5 93t-24.5 93t-67.5 67t-97 25q-53 0 -96 -25t-68 -67t-25 -93zM643 166q0 19 8 34t22.5 24t33.5 9t33.5 -9t23 -24.5t8.5 -33.5q0 -17 -8.5 -32.5t-23 -24.5t-33.5 -9t-33.5 9t-22.5 24.5
t-8 32.5zM650 700l-537 -700h156l537 700h-156z" />
    <glyph glyph-name="guilsinglleft" unicode="&#x2039;" horiz-adv-x="350" 
d="M149 259l150 186l-94 64l-177 -254l177 -254l94 64z" />
    <glyph glyph-name="guilsinglright" unicode="&#x203a;" horiz-adv-x="350" 
d="M201 251l-150 -186l94 -64l177 254l-177 254l-94 -64z" />
    <glyph glyph-name="uni203D" unicode="&#x203d;" horiz-adv-x="627" 
d="M434 481q0 -38 -22.5 -68t-59 -47.5t-77.5 -17.5l19 -70q35 0 73 8.5t74.5 26t66.5 44.5t47.5 62.5t17.5 80.5q0 52 -21.5 92.5t-58 68.5t-82 42.5t-95.5 14.5q-62 0 -114.5 -17.5t-91.5 -47t-62 -64.5l102 -84q16 31 39 50t52 28t59 9q41 0 71 -12.5t46.5 -37
t16.5 -61.5zM216 504l27 -303h90l27 303h-144zM198 62q0 -37 27.5 -61.5t67.5 -24.5q42 0 69 24.5t27 61.5q0 36 -27 61t-69 25q-40 0 -67.5 -25t-27.5 -61z" />
    <glyph glyph-name="fraction" unicode="&#x2044;" horiz-adv-x="730" 
d="M580 700l-520 -700h121l520 700h-121z" />
    <glyph glyph-name="uni2070" unicode="&#x2070;" horiz-adv-x="391" 
d="M118 490q0 40 9.5 69t27.5 45.5t40 16.5q24 0 41.5 -16.5t26.5 -45.5t9 -69t-9 -69t-26.5 -45.5t-41.5 -16.5q-22 0 -40 16.5t-27.5 45.5t-9.5 69zM21 490q0 -68 22 -117t61.5 -75t90.5 -26q54 0 93 26t60.5 75t21.5 117q0 69 -21.5 117.5t-60.5 74.5t-93 26
q-51 0 -90.5 -26t-61.5 -74.5t-22 -117.5z" />
    <glyph glyph-name="uni2074" unicode="&#x2074;" horiz-adv-x="426" 
d="M16 355h385v86h-107l-10 -13h-185zM118 385l123 168v-170l-11 -6v-97h105v420h-75l-244 -345z" />
    <glyph glyph-name="uni2075" unicode="&#x2075;" horiz-adv-x="387" 
d="M361 412q0 44 -18 75t-47 47t-63 16q-31 0 -59 -9t-52 -34l-71 -52q32 17 63 22t55 5q31 0 56.5 -14t25.5 -45q0 -30 -22 -45t-60 -15q-23 0 -52 12t-54 34l-39 -84q29 -22 69 -38.5t98 -16.5q41 0 80 15t64.5 46.5t25.5 80.5zM184 610h168v88h-242l-59 -243l98 51z" />
    <glyph glyph-name="uni2076" unicode="&#x2076;" horiz-adv-x="383" 
d="M122 425q0 22 9.5 38t25.5 25t36 9t36 -9t25.5 -25t9.5 -38q0 -31 -20 -50.5t-51 -19.5q-30 0 -50.5 19.5t-20.5 50.5zM192 696l-121 -154q-20 -25 -34.5 -54t-14.5 -63q0 -51 23.5 -86t62 -53t85.5 -18q48 0 86.5 18t61.5 53t23 86q0 43 -19.5 73.5t-49 47t-61.5 16.5
q-22 0 -37.5 -5t-32.5 -22l21 9l136 152h-129z" />
    <glyph glyph-name="uni2077" unicode="&#x2077;" horiz-adv-x="379" 
d="M23 605h194l-163 -325h109l203 420h-343v-95z" />
    <glyph glyph-name="uni2078" unicode="&#x2078;" horiz-adv-x="362" 
d="M38 599q0 -38 21 -63.5t54 -37.5t67 -12q35 0 67.5 12t53.5 37.5t21 63.5q0 36 -19.5 60.5t-52 37.5t-70.5 13q-39 0 -71.5 -13t-51.5 -37.5t-19 -60.5zM133 589q0 22 13 35t34 13t33.5 -13t12.5 -35q0 -14 -6 -25t-16.5 -17t-23.5 -6t-24 6t-17 17t-6 25zM23 394
q0 -38 21.5 -66t58 -43t77.5 -15t77 15t58 43t22 66q0 33 -14.5 56.5t-38 38.5t-51 22t-53.5 7t-53.5 -7t-51 -22t-38 -38.5t-14.5 -56.5zM124 409q0 16 7.5 28.5t20 19.5t28.5 7q15 0 27.5 -7t20.5 -19.5t8 -28.5q0 -27 -16.5 -41.5t-39.5 -14.5t-39.5 14.5t-16.5 41.5z
" />
    <glyph glyph-name="uni2079" unicode="&#x2079;" horiz-adv-x="380" 
d="M265 555q0 -22 -9.5 -38t-25.5 -25t-36 -9t-36 9t-25.5 25t-9.5 38q0 32 20.5 51t50.5 19q31 0 51 -19t20 -51zM195 284l121 154q21 26 35 54.5t14 62.5q0 51 -23 86t-61.5 53t-86.5 18q-47 0 -85.5 -18t-62 -53t-23.5 -86q0 -42 19.5 -73t49.5 -47.5t61 -16.5q22 0 38 5
t32 22l-20 -9l-137 -152h129z" />
    <glyph glyph-name="uni2080" unicode="&#x2080;" horiz-adv-x="391" 
d="M118 210q0 40 9.5 69t27.5 45.5t40 16.5q24 0 41.5 -16.5t26.5 -45.5t9 -69t-9 -69t-26.5 -45.5t-41.5 -16.5q-22 0 -40 16.5t-27.5 45.5t-9.5 69zM21 210q0 -68 22 -117t61.5 -75t90.5 -26q54 0 93 26t60.5 75t21.5 117q0 69 -21.5 117.5t-60.5 74.5t-93 26
q-51 0 -90.5 -26t-61.5 -74.5t-22 -117.5z" />
    <glyph glyph-name="uni2081" unicode="&#x2081;" horiz-adv-x="361" 
d="M90 299l104 27v-325h98v428l-202 -41v-89z" />
    <glyph glyph-name="uni2082" unicode="&#x2082;" horiz-adv-x="411" 
d="M28 2h356v93h-168l97 87q28 24 44.5 52t16.5 61t-18 64t-52.5 51.5t-87.5 20.5q-54 0 -91.5 -22.5t-57 -59.5t-19.5 -82h100q0 34 18.5 55.5t46.5 21.5q20 0 32 -7.5t18 -20t6 -26.5q0 -25 -14 -46t-39 -48z" />
    <glyph glyph-name="uni2083" unicode="&#x2083;" horiz-adv-x="372" 
d="M158 203q51 0 91 12t63.5 36.5t23.5 60.5q0 48 -38.5 82t-108.5 34q-67 0 -108 -37.5t-41 -93.5h94q0 23 15.5 36.5t38.5 13.5q25 0 36.5 -11.5t11.5 -29.5q0 -15 -9.5 -28.5t-27 -21t-41.5 -7.5v-46zM184 -10q77 0 120.5 35t43.5 90q0 42 -24.5 68.5t-67 39t-98.5 12.5
v-51q31 0 51 -7.5t29.5 -21t9.5 -31.5q0 -27 -17 -39.5t-43 -12.5t-46 15t-20 46h-100q0 -37 19 -69.5t55.5 -53t87.5 -20.5z" />
    <glyph glyph-name="uni2084" unicode="&#x2084;" horiz-adv-x="431" 
d="M14 75h386v86h-107l-10 -13h-186zM117 105l123 168v-170l-11 -6v-97h105v420h-75l-245 -345z" />
    <glyph glyph-name="uni2085" unicode="&#x2085;" horiz-adv-x="396" 
d="M364 132q0 44 -18 75t-47 47t-63 16q-31 0 -59 -9t-52 -34l-70 -52q32 17 62.5 22t54.5 5q31 0 56.5 -14t25.5 -45q0 -30 -22 -45t-60 -15q-23 0 -52 12t-54 34l-39 -84q30 -22 70 -38.5t98 -16.5q41 0 79.5 15t64 46.5t25.5 80.5zM187 330h168v88h-242l-58 -243l97 51z
" />
    <glyph glyph-name="uni2086" unicode="&#x2086;" horiz-adv-x="394" 
d="M126 145q0 22 9 38t25 25t37 9q20 0 36 -9t25 -25t9 -38q0 -31 -20 -50.5t-50 -19.5t-50.5 19.5t-20.5 50.5zM196 416l-122 -154q-20 -25 -34 -54t-14 -63q0 -51 23 -86t62 -53t86 -18t86 18t62 53t23 86q0 43 -19.5 73.5t-49.5 47t-62 16.5q-22 0 -37 -5t-32 -22l20 9
l136 152h-128z" />
    <glyph glyph-name="uni2087" unicode="&#x2087;" horiz-adv-x="384" 
d="M27 325h194l-163 -325h108l203 420h-342v-95z" />
    <glyph glyph-name="uni2088" unicode="&#x2088;" horiz-adv-x="368" 
d="M42 319q0 -38 21 -63.5t54 -37.5t67 -12q35 0 67.5 12t53.5 37.5t21 63.5q0 36 -19.5 60.5t-51.5 37.5t-71 13t-71 -13t-51.5 -37.5t-19.5 -60.5zM137 309q0 22 13 35t34 13t33.5 -13t12.5 -35q0 -14 -5.5 -25t-16 -17t-24.5 -6q-13 0 -23.5 6t-17 17t-6.5 25zM27 114
q0 -38 22 -66t58 -43t77 -15q42 0 77.5 15t57.5 43t22 66q0 33 -14.5 56.5t-38 38.5t-51 22t-53.5 7t-53.5 -7t-51 -22t-38 -38.5t-14.5 -56.5zM128 129q0 16 7.5 28.5t20.5 19.5t28 7t28 -7t20.5 -19.5t7.5 -28.5q0 -27 -16.5 -41.5t-39.5 -14.5t-39.5 14.5t-16.5 41.5z
" />
    <glyph glyph-name="uni2089" unicode="&#x2089;" horiz-adv-x="398" 
d="M266 275q0 -22 -9 -38t-25 -25t-36 -9t-36 9t-25.5 25t-9.5 38q0 32 20.5 51t50.5 19t50 -19t20 -51zM197 4l121 154q20 26 34.5 54.5t14.5 62.5q0 51 -23 86t-62 53t-86 18t-85.5 -18t-62 -53t-23.5 -86q0 -42 19.5 -73t49.5 -47.5t61 -16.5q22 0 37.5 5t32.5 22l-21 -9
l-136 -152h129z" />
    <glyph glyph-name="Euro" unicode="&#x20ac;" horiz-adv-x="655" 
d="M54 382h491v84h-491v-84zM40 250h485v84h-485v-84zM248 350q0 76 21 127t58.5 77t85.5 26q86 0 150 -62v161q-34 20 -71.5 30.5t-78.5 10.5q-71 0 -129 -28t-99 -78.5t-62.5 -118t-21.5 -145.5q0 -105 38 -188.5t108 -132t166 -48.5q41 0 78.5 11t71.5 30v160
q-64 -62 -150 -62q-48 0 -85.5 26t-58.5 77.5t-21 126.5z" />
    <glyph glyph-name="ruble" unicode="&#x20bd;" horiz-adv-x="706" 
d="M150 700v-700h169v700h-169zM254 561h141q37 0 63 -6.5t40 -22.5t14 -43q0 -28 -14 -43.5t-40 -22t-63 -6.5h-141v-139h141q89 0 151 21.5t94.5 68.5t32.5 121q0 75 -32.5 121.5t-94.5 68t-151 21.5h-141v-139zM307 77h212v131h-212v-131zM30 284h212v131h-212v-131z
M30 77h212v131h-212v-131z" />
    <glyph glyph-name="trademark" unicode="&#x2122;" horiz-adv-x="746" 
d="M30 624h96v-274h84v274h97v76h-277v-76zM602 593l29 -243h89l-57 368zM365 718l-57 -368h89l29 243zM663 718l-149 -214l-149 214v-115l149 -221l149 221v115z" />
    <glyph glyph-name="uni2150" unicode="&#x2150;" horiz-adv-x="941" 
d="M605 700l-520 -700h121l520 700h-121zM24 572l104 27v-325h98v428l-202 -41v-89zM577 325h194l-163 -325h109l203 420h-343v-95z" />
    <glyph glyph-name="uni2151" unicode="&#x2151;" horiz-adv-x="883" 
d="M599 700l-520 -700h121l520 700h-121zM24 572l104 27v-325h98v428l-202 -41v-89zM760 275q0 -22 -9 -38t-25 -25t-36 -9t-36 9t-25.5 25t-9.5 38q0 32 20.5 51t50.5 19q31 0 50.5 -19t19.5 -51zM691 4l121 154q20 26 34.5 54.5t14.5 62.5q0 51 -23 86t-62 53t-86 18
t-86 -18t-62 -53t-23 -86q0 -42 19.5 -73t49.5 -47.5t61 -16.5q22 0 38 5t32 22l-20 -9l-137 -152h129z" />
    <glyph glyph-name="uni2152" unicode="&#x2152;" horiz-adv-x="1210" 
d="M599 700l-520 -700h121l520 700h-121zM24 572l104 27v-325h98v428l-202 -41v-89zM550 299l104 27v-325h98v428l-202 -41v-89zM926 210q0 40 9 69t27 45.5t41 16.5t40.5 -16.5t27 -45.5t9.5 -69t-9.5 -69t-27 -45.5t-40.5 -16.5t-41 16.5t-27 45.5t-9 69zM828 210
q0 -68 22 -117t61.5 -75t91.5 -26q53 0 92 26t60.5 75t21.5 117q0 69 -21.5 117.5t-60.5 74.5t-92 26q-52 0 -91.5 -26t-61.5 -74.5t-22 -117.5z" />
    <glyph glyph-name="onethird" unicode="&#x2153;" horiz-adv-x="873" 
d="M598 700l-520 -700h121l520 700h-121zM24 572l104 27v-325h98v428l-202 -41v-89zM659 203q50 0 90 12t64 36.5t24 60.5q0 48 -38.5 82t-109.5 34q-67 0 -108 -37.5t-41 -93.5h94q0 23 15.5 36.5t38.5 13.5q25 0 36.5 -11.5t11.5 -29.5q0 -15 -9.5 -28.5t-27 -21
t-40.5 -7.5v-46zM684 -10q77 0 121 35t44 90q0 42 -25 68.5t-67.5 39t-97.5 12.5v-51q30 0 50 -7.5t29.5 -21t9.5 -31.5q0 -27 -17 -39.5t-43 -12.5t-45.5 15t-19.5 46h-101q0 -37 19.5 -69.5t55.5 -53t87 -20.5z" />
    <glyph glyph-name="twothirds" unicode="&#x2154;" horiz-adv-x="1006" 
d="M745 700l-520 -700h121l520 700h-121zM30 282h356v93h-168l97 87q28 24 44.5 52t16.5 61t-18 64t-52.5 51.5t-87.5 20.5q-54 0 -91.5 -22.5t-57 -59.5t-19.5 -82h100q0 34 18 55.5t47 21.5q20 0 32 -7.5t18 -20t6 -26.5q0 -25 -14 -46t-40 -48zM792 203q50 0 90 12
t64 36.5t24 60.5q0 48 -38.5 82t-109.5 34q-67 0 -108 -37.5t-41 -93.5h94q0 23 15.5 36.5t38.5 13.5q25 0 36.5 -11.5t11.5 -29.5q0 -15 -9.5 -28.5t-27 -21t-40.5 -7.5v-46zM817 -10q77 0 121 35t44 90q0 42 -24.5 68.5t-67 39t-98.5 12.5v-51q30 0 50 -7.5t29.5 -21
t9.5 -31.5q0 -27 -17 -39.5t-43 -12.5t-45.5 15t-19.5 46h-101q0 -37 19.5 -69.5t56 -53t86.5 -20.5z" />
    <glyph glyph-name="uni2155" unicode="&#x2155;" horiz-adv-x="862" 
d="M599 700l-520 -700h121l520 700h-121zM24 572l104 27v-325h98v428l-202 -41v-89zM839 132q0 44 -18 75t-47 47t-63 16q-31 0 -59 -9t-52 -34l-70 -52q32 17 62.5 22t54.5 5q31 0 56.5 -14t25.5 -45q0 -30 -22 -45t-60 -15q-23 0 -52 12t-54 34l-39 -84q30 -22 70 -38.5
t98 -16.5q41 0 79.5 15t64 46.5t25.5 80.5zM662 330h168v88h-242l-58 -243l97 51z" />
    <glyph glyph-name="uni2156" unicode="&#x2156;" horiz-adv-x="1005" 
d="M745 700l-520 -700h121l520 700h-121zM30 282h356v93h-168l97 87q28 24 44.5 52t16.5 61t-18 64t-52.5 51.5t-87.5 20.5q-54 0 -91.5 -22.5t-57 -59.5t-19.5 -82h100q0 34 18 55.5t47 21.5q20 0 32 -7.5t18 -20t6 -26.5q0 -25 -14 -46t-40 -48zM972 132q0 44 -18 75
t-47 47t-62 16q-32 0 -60 -9t-52 -34l-70 -52q32 17 62.5 22t54.5 5q31 0 56.5 -14t25.5 -45q0 -30 -21.5 -45t-60.5 -15q-22 0 -51 12t-55 34l-39 -84q30 -22 70 -38.5t98 -16.5q41 0 79.5 15t64 46.5t25.5 80.5zM795 330h169v88h-243l-58 -243l98 51z" />
    <glyph glyph-name="uni2157" unicode="&#x2157;" horiz-adv-x="930" 
d="M674 700l-520 -700h121l520 700h-121zM159 483q50 0 90.5 12t64 36.5t23.5 60.5q0 48 -38.5 82t-109.5 34q-67 0 -107.5 -37.5t-40.5 -93.5h93q0 23 15.5 36.5t39.5 13.5t36 -11.5t12 -29.5q0 -15 -10 -28.5t-27.5 -21t-40.5 -7.5v-46zM185 270q77 0 120.5 35t43.5 90
q0 42 -24.5 68.5t-67 39t-98.5 12.5v-51q31 0 50.5 -7.5t29.5 -21t10 -31.5q0 -27 -17.5 -39.5t-43.5 -12.5t-45.5 15t-19.5 46h-100q0 -37 19 -69.5t55.5 -53t87.5 -20.5zM895 132q0 44 -18 75t-47 47t-63 16q-31 0 -59 -9t-52 -34l-70 -52q32 17 62.5 22t54.5 5
q31 0 56.5 -14t25.5 -45q0 -30 -22 -45t-60 -15q-23 0 -52 12t-54 34l-39 -84q30 -22 69.5 -38.5t97.5 -16.5q41 0 80 15t64.5 46.5t25.5 80.5zM718 330h168v88h-242l-58 -243l97 51z" />
    <glyph glyph-name="uni2158" unicode="&#x2158;" horiz-adv-x="1015" 
d="M733 699l-520 -700h121l520 700h-121zM22 355h385v86h-106l-10 -13h-186zM124 385l123 168v-170l-11 -6v-97h105v420h-75l-244 -345zM986 132q0 44 -18 74.5t-47 46.5t-63 16q-31 0 -59 -9t-52 -34l-71 -51q32 16 63 21.5t55 5.5q31 0 56.5 -14t25.5 -45t-22 -46t-60 -15
q-23 0 -52 12.5t-54 33.5l-39 -84q29 -22 69 -38t98 -16q41 0 80 14.5t64.5 46.5t25.5 81zM809 330h168v87h-242l-59 -242l98 50z" />
    <glyph glyph-name="uni2159" unicode="&#x2159;" horiz-adv-x="871" 
d="M618 700l-520 -700h121l520 700h-121zM24 572l104 27v-325h98v428l-202 -41v-89zM601 145q0 22 9 38t25.5 25t36.5 9t36 -9t25 -25t9 -38q0 -31 -20 -50.5t-50 -19.5t-50.5 19.5t-20.5 50.5zM671 416l-121 -154q-20 -25 -34.5 -54t-14.5 -63q0 -51 23 -86t62 -53t86 -18
t86 18t62 53t23 86q0 43 -19.5 73.5t-49.5 47t-61 16.5q-23 0 -38 -5t-32 -22l21 9l135 152h-128z" />
    <glyph glyph-name="uni215A" unicode="&#x215a;" horiz-adv-x="931" 
d="M696 700l-520 -700h121l520 700h-121zM367 412q0 44 -18 75t-47 47t-62 16q-32 0 -60 -9t-52 -34l-70 -52q32 17 62.5 22t54.5 5q31 0 56.5 -14t25.5 -45q0 -30 -22 -45t-60 -15q-23 0 -52 12t-54 34l-39 -84q30 -22 70 -38.5t98 -16.5q41 0 79.5 15t64 46.5t25.5 80.5z
M190 610h169v88h-243l-58 -243l98 51zM661 145q0 22 9.5 38t25.5 25t36 9t36 -9t25 -25t9 -38q0 -31 -20 -50.5t-50 -19.5t-50.5 19.5t-20.5 50.5zM731 416l-121 -154q-20 -25 -34.5 -54t-14.5 -63q0 -51 23 -86t62 -53t86 -18t86 18t62 53t23 86q0 43 -19.5 73.5t-49.5 47
t-61 16.5q-23 0 -38 -5t-32 -22l20 9l136 152h-128z" />
    <glyph glyph-name="oneeighth" unicode="&#x215b;" horiz-adv-x="890" 
d="M618 700l-520 -700h121l520 700h-121zM24 572l104 27v-325h98v428l-202 -41v-89zM561 319q0 -38 21 -63.5t54 -37.5t67 -12q35 0 67.5 12t53.5 37.5t21 63.5q0 36 -19.5 60.5t-52 37.5t-70.5 13q-39 0 -71 -13t-51.5 -37.5t-19.5 -60.5zM656 309q0 22 13 35t34 13
t33.5 -13t12.5 -35q0 -14 -6 -25t-16.5 -17t-23.5 -6t-24 6t-17 17t-6 25zM546 114q0 -38 22 -66t58 -43t77 -15q42 0 77.5 15t57.5 43t22 66q0 33 -14.5 56.5t-38 38.5t-51 22t-53.5 7t-53.5 -7t-51 -22t-38 -38.5t-14.5 -56.5zM647 129q0 16 7.5 28.5t20 19.5t28.5 7
q15 0 27.5 -7t20.5 -19.5t8 -28.5q0 -27 -16.5 -41.5t-39.5 -14.5t-39.5 14.5t-16.5 41.5z" />
    <glyph glyph-name="threeeighths" unicode="&#x215c;" horiz-adv-x="953" 
d="M680 700l-520 -700h121l520 700h-121zM159 483q50 0 90.5 12t64 36.5t23.5 60.5q0 48 -38.5 82t-109.5 34q-67 0 -107.5 -37.5t-40.5 -93.5h93q0 23 15.5 36.5t39.5 13.5t36 -11.5t12 -29.5q0 -15 -10 -28.5t-27.5 -21t-40.5 -7.5v-46zM185 270q77 0 120.5 35t43.5 90
q0 42 -24.5 68.5t-67 39t-98.5 12.5v-51q31 0 50.5 -7.5t29.5 -21t10 -31.5q0 -27 -17.5 -39.5t-43.5 -12.5t-45.5 15t-19.5 46h-100q0 -37 19 -69.5t55.5 -53t87.5 -20.5zM623 319q0 -38 21 -63.5t54 -37.5t67 -12q35 0 67.5 12t53.5 37.5t21 63.5q0 36 -19.5 60.5
t-51.5 37.5t-71 13t-71 -13t-51.5 -37.5t-19.5 -60.5zM718 309q0 22 13 35t34 13t33.5 -13t12.5 -35q0 -14 -5.5 -25t-16 -17t-24.5 -6q-13 0 -23.5 6t-17 17t-6.5 25zM608 114q0 -38 22 -66t58 -43t77 -15q42 0 77.5 15t57.5 43t22 66q0 33 -14.5 56.5t-38 38.5t-51 22
t-53.5 7t-53.5 -7t-51 -22t-38 -38.5t-14.5 -56.5zM709 129q0 16 7.5 28.5t20.5 19.5t28 7t28 -7t20.5 -19.5t7.5 -28.5q0 -27 -16.5 -41.5t-39.5 -14.5t-39.5 14.5t-16.5 41.5z" />
    <glyph glyph-name="fiveeighths" unicode="&#x215d;" horiz-adv-x="969" 
d="M696 700l-520 -700h121l520 700h-121zM361 412q0 44 -18 75t-47 47t-63 16q-31 0 -59 -9t-52 -34l-71 -52q32 17 63 22t55 5q31 0 56.5 -14t25.5 -45q0 -30 -22 -45t-60 -15q-23 0 -52 12t-54 34l-39 -84q29 -22 69 -38.5t98 -16.5q41 0 80 15t64.5 46.5t25.5 80.5z
M184 610h168v88h-242l-59 -243l98 51zM639 319q0 -38 21 -63.5t54 -37.5t67 -12q35 0 67.5 12t53.5 37.5t21 63.5q0 36 -19 60.5t-51.5 37.5t-71.5 13q-38 0 -70.5 -13t-52 -37.5t-19.5 -60.5zM735 309q0 22 12.5 35t33.5 13t34 -13t13 -35q0 -14 -6 -25t-16.5 -17t-24.5 -6
q-13 0 -23.5 6t-16.5 17t-6 25zM624 114q0 -38 22 -66t58.5 -43t76.5 -15q42 0 77.5 15t57.5 43t22 66q0 33 -14.5 56.5t-38 38.5t-51 22t-53.5 7t-53.5 -7t-51 -22t-38 -38.5t-14.5 -56.5zM725 129q0 16 8 28.5t20.5 19.5t27.5 7q16 0 28.5 -7t20 -19.5t7.5 -28.5
q0 -27 -16 -41.5t-40 -14.5q-23 0 -39.5 14.5t-16.5 41.5z" />
    <glyph glyph-name="seveneighths" unicode="&#x215e;" horiz-adv-x="859" 
d="M580 700l-520 -700h121l520 700h-121zM23 605h194l-163 -325h109l203 420h-343v-95zM529 319q0 -38 21 -63.5t54 -37.5t67 -12q35 0 67.5 12t53.5 37.5t21 63.5q0 36 -19 60.5t-51.5 37.5t-71.5 13q-38 0 -70.5 -13t-52 -37.5t-19.5 -60.5zM625 309q0 22 12.5 35t33.5 13
t34 -13t13 -35q0 -14 -6 -25t-16.5 -17t-24.5 -6q-13 0 -23.5 6t-16.5 17t-6 25zM514 114q0 -38 22 -66t58.5 -43t76.5 -15q42 0 77.5 15t57.5 43t22 66q0 33 -14.5 56.5t-38 38.5t-51 22t-53.5 7t-53.5 -7t-51 -22t-38 -38.5t-14.5 -56.5zM615 129q0 16 8 28.5t20.5 19.5
t27.5 7q16 0 28.5 -7t20 -19.5t7.5 -28.5q0 -27 -16 -41.5t-40 -14.5q-23 0 -39.5 14.5t-16.5 41.5z" />
    <glyph glyph-name="partialdiff" unicode="&#x2202;" horiz-adv-x="615" 
d="M305 -16q77 0 137 34t94.5 93.5t34.5 134.5q0 43 -13 90.5t-39 97t-65.5 102.5t-91.5 109.5t-117 114.5l-112 -75q51 -38 95 -77.5t82 -82t69.5 -87t56.5 -93.5l43 -1q-96 129 -224 129q-62 0 -109.5 -28.5t-74.5 -80t-27 -118.5q0 -77 33.5 -136t92.5 -92.5t135 -33.5z
M307 115q-32 0 -56 15t-37.5 41t-13.5 59q0 34 14 60t38 41t55 15q32 0 56 -15t37.5 -41t13.5 -60q0 -33 -13 -59t-37.5 -41t-56.5 -15z" />
    <glyph glyph-name="emptyset" unicode="&#x2205;" horiz-adv-x="600" 
d="M299 22q61 0 111 30t80 80t30 111q0 60 -30 110.5t-80 80t-111 29.5t-111 -29.5t-79.5 -79.5t-29.5 -111t29.5 -111t79.5 -80t111 -30zM299 121q-34 0 -61.5 16.5t-43.5 44t-16 61.5t16 61t43.5 43.5t61.5 16.5t61.5 -16.5t44 -44t16.5 -60.5q0 -32 -16.5 -60t-44 -45
t-61.5 -17zM130 23l390 388l-53 52l-389 -388z" />
    <glyph glyph-name="product" unicode="&#x220f;" horiz-adv-x="600" 
d="M128 0h124v583h96v-583h124v583h77v117h-498v-117h77v-583z" />
    <glyph glyph-name="summation" unicode="&#x2211;" horiz-adv-x="600" 
d="M100 0h400v124h-197l109 228l-109 224h197v124h-400l170 -348z" />
    <glyph glyph-name="minus" unicode="&#x2212;" horiz-adv-x="593" 
d="M58 172h478v131h-478v-131z" />
    <glyph glyph-name="uni2215" unicode="&#x2215;" horiz-adv-x="608" 
d="M448 700l-433 -850h151l427 850h-145z" />
    <glyph glyph-name="uni2219" unicode="&#x2219;" horiz-adv-x="322" 
d="M67 443q0 -38 27 -65t67 -27q42 0 68 27t26 65t-26 65t-68 27q-40 0 -67 -27t-27 -65z" />
    <glyph glyph-name="radical" unicode="&#x221a;" horiz-adv-x="600" 
d="M245 -196l-143 400l84 -35l-130 -37l-33 102l157 52l92 -286l-62 41l143 659h171v-120h-162l94 87z" />
    <glyph glyph-name="infinity" unicode="&#x221e;" horiz-adv-x="806" 
d="M209 29q96 0 194 120q50 -60 97.5 -90t96.5 -30q50 0 92.5 28t68.5 73.5t26 99.5t-26 99t-68.5 73t-92.5 28q-96 0 -194 -121q-98 121 -194 121q-50 0 -92.5 -28t-68.5 -73t-26 -99t26 -99.5t68.5 -73.5t92.5 -28zM229 144q-20 0 -38.5 12t-30 32t-11.5 42q0 23 11.5 42
t30 31t38.5 12q28 0 56 -22t52 -63q-25 -41 -52.5 -63.5t-55.5 -22.5zM578 144q-28 0 -55.5 22.5t-53.5 63.5q26 41 53.5 63t55.5 22q20 0 38 -11.5t29 -31t11 -42.5q0 -22 -11 -42t-28.5 -32t-38.5 -12z" />
    <glyph glyph-name="integral" unicode="&#x222b;" horiz-adv-x="600" 
d="M193 -200q47 0 84.5 20t59.5 57.5t24 88.5l35 625q2 33 14.5 51.5t32.5 18.5q10 0 20.5 -5.5t25.5 -19.5l57 107q-36 28 -65.5 40t-61.5 12q-70 2 -116.5 -43.5t-51.5 -122.5l-34 -626q-2 -31 -15 -50t-34 -19q-9 0 -19.5 6t-25.5 19l-58 -106q37 -28 66.5 -40.5
t61.5 -12.5z" />
    <glyph glyph-name="approxequal" unicode="&#x2248;" horiz-adv-x="600" 
d="M406 322q-29 0 -61.5 13t-68.5 37q-28 19 -49.5 28.5t-39.5 9.5q-28 0 -36 -20t5 -57l-119 5q-13 44 4.5 84.5t56.5 66.5t90 26q30 0 61 -12t70 -37q28 -18 46.5 -26.5t30.5 -8.5q22 0 27.5 20.5t-7.5 52.5l121 -5q12 -47 -3 -87t-48.5 -65t-79.5 -25zM406 72
q-29 0 -61.5 13t-68.5 37q-28 19 -49.5 28.5t-39.5 9.5q-28 0 -36 -20t5 -57l-119 5q-13 44 4.5 84.5t56.5 66.5t90 26q30 0 61 -12t70 -37q28 -18 46.5 -26.5t30.5 -8.5q22 0 27.5 20.5t-7.5 52.5l121 -5q12 -47 -3 -87t-48.5 -65t-79.5 -25z" />
    <glyph glyph-name="notequal" unicode="&#x2260;" horiz-adv-x="600" 
d="M256 -3l-121 49l236 501l120 -50zM56 103v131h515v-131h-515zM56 309v131h515v-131h-515z" />
    <glyph glyph-name="lessequal" unicode="&#x2264;" horiz-adv-x="600" 
d="M56 6v130h513v-130h-513zM566 162l-510 213v101l510 214v-148l-295 -112l295 -120v-148z" />
    <glyph glyph-name="greaterequal" unicode="&#x2265;" horiz-adv-x="600" 
d="M65 6v130h513v-130h-513zM65 162v148l295 112l-295 120v148l510 -214v-101z" />
    <glyph glyph-name="lozenge" unicode="&#x25ca;" horiz-adv-x="600" 
d="M306 15l-206 341l206 340l194 -340zM302 241l66 115l-66 114l-70 -114z" />
    <glyph glyph-name="uniFF10" unicode="&#xff10;" horiz-adv-x="630" 
d="M186 350q0 49 9 89.5t26 69t40.5 44t52.5 15.5t52.5 -15.5t40.5 -44t26.5 -69t9.5 -89.5t-9.5 -89.5t-26.5 -69t-40.5 -44t-52.5 -15.5t-52.5 15.5t-40.5 44t-26 69t-9 89.5zM23 350q0 -114 37 -195t102.5 -124.5t151.5 -43.5q90 0 155 43.5t100.5 124.5t35.5 195
t-35.5 195t-100.5 124.5t-155 43.5q-86 0 -151.5 -43.5t-102.5 -124.5t-37 -195z" />
    <glyph glyph-name="uniFF11" unicode="&#xff11;" horiz-adv-x="630" 
d="M109 498l173 43v-541h163v713l-336 -68v-147z" />
    <glyph glyph-name="uniFF12" unicode="&#xff12;" horiz-adv-x="630" 
d="M13 0h593v155h-280l163 146q45 39 72.5 84.5t27.5 102.5q0 41 -16.5 81.5t-49.5 73t-82 52t-114 19.5q-91 0 -153.5 -37t-94.5 -99t-32 -137h165q0 38 14 67t38.5 45t57.5 16q24 0 41.5 -7.5t29 -20t17 -28.5t5.5 -32q0 -28 -11 -52.5t-31 -49.5t-48 -56z" />
    <glyph glyph-name="uniFF13" unicode="&#xff13;" horiz-adv-x="630" 
d="M273 339q84 0 150.5 20t106 60t39.5 100q0 54 -28.5 98t-83.5 70t-134 26q-74 0 -130 -28.5t-86.5 -78t-30.5 -111.5h155q0 37 26 60t66 23q27 0 44.5 -8.5t26 -24.5t8.5 -36q0 -19 -9 -36t-26 -30t-41 -20.5t-53 -7.5v-76zM316 -16q86 0 147 26.5t93.5 73t32.5 107.5
q0 53 -23 91t-65.5 62.5t-100 36t-127.5 11.5v-86q38 0 66.5 -7t46.5 -20.5t27 -31.5t9 -40q0 -29 -12.5 -49t-35.5 -29t-52 -9t-54 11t-40 34t-15 57h-167q0 -46 18.5 -89t53 -77t84.5 -53t114 -19z" />
    <glyph glyph-name="uniFF14" unicode="&#xff14;" horiz-adv-x="630" 
d="M12 124h598v144h-165l-17 -22h-278zM170 174l186 281v-284l-19 -11v-160h175v700h-125l-375 -576z" />
    <glyph glyph-name="uniFF15" unicode="&#xff15;" horiz-adv-x="630" 
d="M590 224q0 73 -30 124t-78.5 78t-103.5 27q-54 0 -100.5 -15t-85.5 -57l-118 -85q36 18 70.5 27.5t67 13t59.5 3.5q34 0 65 -10t50.5 -31.5t19.5 -56.5q0 -33 -16.5 -56t-46.5 -34t-72 -11q-26 0 -56.5 9.5t-61.5 26t-59 40.5l-66 -139q32 -24 72.5 -45t92 -33.5
t115.5 -12.5q51 0 101 13.5t91 42.5t65.5 74t24.5 107zM295 554h281v146h-405l-97 -404l163 84z" />
    <glyph glyph-name="uniFF16" unicode="&#xff16;" horiz-adv-x="630" 
d="M196 246q0 35 15.5 62t42.5 42t60 15q34 0 60.5 -15t42 -42t15.5 -62q0 -36 -15.5 -62.5t-42 -41t-60.5 -14.5q-33 0 -60 14.5t-42.5 41t-15.5 62.5zM313 697l-202 -257q-34 -42 -57.5 -90t-23.5 -104q0 -86 38.5 -144.5t103 -88t142.5 -29.5q79 0 143.5 29.5t103 88
t38.5 144.5q0 53 -19 95t-50 71.5t-69.5 45t-77.5 15.5q-38 0 -63.5 -8t-53.5 -36l34 15l227 253h-214z" />
    <glyph glyph-name="uniFF17" unicode="&#xff17;" horiz-adv-x="630" 
d="M39 542h323l-273 -542h182l339 700h-571v-158z" />
    <glyph glyph-name="uniFF18" unicode="&#xff18;" horiz-adv-x="630" 
d="M91 531q0 -48 20.5 -83.5t54.5 -59t76 -34.5t85 -11t85 11t76.5 34.5t55 59t20.5 83.5q0 59 -32.5 100.5t-86 63t-118.5 21.5q-64 0 -118 -21.5t-86 -63t-32 -100.5zM249 515q0 23 10 41.5t28 28.5t40 10q24 0 41 -10t27 -28.5t10 -41.5q0 -24 -10 -42t-27.5 -28
t-40.5 -10q-22 0 -39.5 10t-28 28t-10.5 42zM66 190q0 -48 21 -86t58 -65t84 -41t98 -14q52 0 99 14t83.5 41t58 65t21.5 86q0 55 -24 94.5t-63.5 64t-85.5 36t-89 11.5t-89 -11.5t-85 -36t-63 -64t-24 -94.5zM234 216q0 25 12.5 46t34 33t46.5 12q26 0 47 -12t34 -33
t13 -46q0 -31 -13 -52t-34 -32t-47 -11q-25 0 -46.5 11t-34 32t-12.5 52z" />
    <glyph glyph-name="uniFF19" unicode="&#xff19;" horiz-adv-x="630" 
d="M432 454q0 -35 -15.5 -62t-42 -42t-60.5 -15q-33 0 -60 15t-42.5 42t-15.5 62q0 36 15.5 62.5t42.5 41t60 14.5q34 0 60.5 -14.5t42 -41t15.5 -62.5zM316 3l202 257q34 42 57.5 90t23.5 104q0 87 -38.5 145t-103 87.5t-143.5 29.5q-78 0 -142.5 -29.5t-103 -87.5
t-38.5 -145q0 -53 18.5 -95t50 -71.5t70 -45t77.5 -15.5q38 0 63.5 8.5t53.5 35.5l-35 -15l-226 -253h214z" />
    <glyph glyph-name="a.alt" horiz-adv-x="617" 
d="M409 460v-460h150v460h-150zM32 230q0 -77 31.5 -130.5t81.5 -81.5t106 -28q58 0 102.5 29t70.5 83t26 128q0 75 -26 128.5t-70.5 82.5t-102.5 29q-56 0 -106 -28t-81.5 -81t-31.5 -131zM191 230q0 36 15 62.5t40 41t55 14.5q26 0 50.5 -14t40.5 -40.5t16 -63.5
t-16 -63.5t-40.5 -40.5t-50.5 -14q-30 0 -55 14.5t-40 41t-15 62.5z" />
    <glyph glyph-name="agrave.alt" horiz-adv-x="617" 
d="M409 460v-460h150v460h-150zM32 230q0 -77 31.5 -130.5t81.5 -81.5t106 -28q58 0 102.5 29t70.5 83t26 128q0 75 -26 128.5t-70.5 82.5t-102.5 29q-56 0 -106 -28t-81.5 -81t-31.5 -131zM191 230q0 36 15 62.5t40 41t55 14.5q26 0 50.5 -14t40.5 -40.5t16 -63.5
t-16 -63.5t-40.5 -40.5t-50.5 -14q-30 0 -55 14.5t-40 41t-15 62.5zM132 681l180 -150l85 42l-150 160z" />
    <glyph glyph-name="aacute.alt" horiz-adv-x="617" 
d="M409 460v-460h150v460h-150zM32 230q0 -77 31.5 -130.5t81.5 -81.5t106 -28q58 0 102.5 29t70.5 83t26 128q0 75 -26 128.5t-70.5 82.5t-102.5 29q-56 0 -106 -28t-81.5 -81t-31.5 -131zM191 230q0 36 15 62.5t40 41t55 14.5q26 0 50.5 -14t40.5 -40.5t16 -63.5
t-16 -63.5t-40.5 -40.5t-50.5 -14q-30 0 -55 14.5t-40 41t-15 62.5zM449 681l-115 52l-150 -160l85 -42z" />
    <glyph glyph-name="acircumflex.alt" horiz-adv-x="617" 
d="M409 460v-460h150v460h-150zM32 230q0 -77 31.5 -130.5t81.5 -81.5t106 -28q58 0 102.5 29t70.5 83t26 128q0 75 -26 128.5t-70.5 82.5t-102.5 29q-56 0 -106 -28t-81.5 -81t-31.5 -131zM191 230q0 36 15 62.5t40 41t55 14.5q26 0 50.5 -14t40.5 -40.5t16 -63.5
t-16 -63.5t-40.5 -40.5t-50.5 -14q-30 0 -55 14.5t-40 41t-15 62.5zM314 616l91 -85l106 71l-197 140l-197 -140l106 -71z" />
    <glyph glyph-name="atilde.alt" horiz-adv-x="617" 
d="M409 460v-460h150v460h-150zM32 230q0 -77 31.5 -130.5t81.5 -81.5t106 -28q58 0 102.5 29t70.5 83t26 128q0 75 -26 128.5t-70.5 82.5t-102.5 29q-56 0 -106 -28t-81.5 -81t-31.5 -131zM191 230q0 36 15 62.5t40 41t55 14.5q26 0 50.5 -14t40.5 -40.5t16 -63.5
t-16 -63.5t-40.5 -40.5t-50.5 -14q-30 0 -55 14.5t-40 41t-15 62.5zM124 596l72 -62q0 8 3.5 20t14 21.5t29.5 9.5q25 0 46 -13t43.5 -26.5t49.5 -13.5q32 0 59.5 13.5t47 34t27.5 38.5l-71 74q-15 -24 -30.5 -38.5t-34.5 -14.5q-21 0 -36 8t-28.5 18t-30.5 18t-41 8
q-32 0 -57.5 -14t-41.5 -35t-21 -46z" />
    <glyph glyph-name="adieresis.alt" horiz-adv-x="617" 
d="M409 460v-460h150v460h-150zM32 230q0 -77 31.5 -130.5t81.5 -81.5t106 -28q58 0 102.5 29t70.5 83t26 128q0 75 -26 128.5t-70.5 82.5t-102.5 29q-56 0 -106 -28t-81.5 -81t-31.5 -131zM191 230q0 36 15 62.5t40 41t55 14.5q26 0 50.5 -14t40.5 -40.5t16 -63.5
t-16 -63.5t-40.5 -40.5t-50.5 -14q-30 0 -55 14.5t-40 41t-15 62.5zM342 612q0 -35 25.5 -58t62.5 -23q36 0 62 23t26 58q0 36 -26 59t-62 23q-37 0 -62.5 -23t-25.5 -59zM98 612q0 -35 26 -58t62 -23q37 0 62.5 23t25.5 58q0 36 -25.5 59t-62.5 23q-36 0 -62 -23t-26 -59z
" />
    <glyph glyph-name="aring.alt" horiz-adv-x="617" 
d="M409 460v-460h150v460h-150zM32 230q0 -77 31.5 -130.5t81.5 -81.5t106 -28q58 0 102.5 29t70.5 83t26 128q0 75 -26 128.5t-70.5 82.5t-102.5 29q-56 0 -106 -28t-81.5 -81t-31.5 -131zM191 230q0 36 15 62.5t40 41t55 14.5q25 0 50 -14t41 -40t16 -64t-16 -64t-41 -40
t-50 -14q-30 0 -55 14.5t-40 41t-15 62.5zM183 646q0 -51 36 -83t88 -32t89 32t37 83q0 52 -37 84t-89 32t-88 -32t-36 -84zM261 646q0 23 13.5 35.5t32.5 12.5t33 -12.5t14 -35.5q0 -22 -14 -34.5t-33 -12.5t-32.5 12.5t-13.5 34.5z" />
    <glyph glyph-name="amacron.alt" horiz-adv-x="617" 
d="M409 460v-460h150v460h-150zM32 230q0 -77 31.5 -130.5t81.5 -81.5t106 -28q58 0 102.5 29t70.5 83t26 128q0 75 -26 128.5t-70.5 82.5t-102.5 29q-56 0 -106 -28t-81.5 -81t-31.5 -131zM191 230q0 36 15 62.5t40 41t55 14.5q26 0 50.5 -14t40.5 -40.5t16 -63.5
t-16 -63.5t-40.5 -40.5t-50.5 -14q-30 0 -55 14.5t-40 41t-15 62.5zM125 531h371v131h-371v-131z" />
    <glyph glyph-name="abreve.alt" horiz-adv-x="617" 
d="M409 460v-460h150v460h-150zM32 230q0 -77 31.5 -130.5t81.5 -81.5t106 -28q58 0 102.5 29t70.5 83t26 128q0 75 -26 128.5t-70.5 82.5t-102.5 29q-56 0 -106 -28t-81.5 -81t-31.5 -131zM191 230q0 36 15 62.5t40 41t55 14.5q26 0 50.5 -14t40.5 -40.5t16 -63.5
t-16 -63.5t-40.5 -40.5t-50.5 -14q-30 0 -55 14.5t-40 41t-15 62.5zM136 677q0 -40 19 -73.5t56 -53t89 -19.5q53 0 89.5 19.5t55.5 53t19 73.5h-98q0 -18 -8.5 -31t-23 -21t-34.5 -8q-19 0 -33.5 8t-23 21t-8.5 31h-99z" />
    <glyph glyph-name="aogonek.alt" horiz-adv-x="617" 
d="M409 460v-460h150v460h-150zM32 230q0 -77 31.5 -130.5t81.5 -81.5t106 -28q58 0 102.5 29t70.5 83t26 128q0 75 -26 128.5t-70.5 82.5t-102.5 29q-56 0 -106 -28t-81.5 -81t-31.5 -131zM191 230q0 36 15 62.5t40 41t55 14.5q26 0 50.5 -14t40.5 -40.5t16 -63.5
t-16 -63.5t-40.5 -40.5t-50.5 -14q-30 0 -55 14.5t-40 41t-15 62.5zM533 -111q-10 -10 -22.5 -15t-27.5 -5q-18 0 -27 9.5t-9 27.5q0 16 9.5 32t27.5 32t44 30l-41 25q-35 -18 -66.5 -39.5t-51.5 -47t-20 -58.5q0 -32 15.5 -54.5t42 -34t59.5 -11.5q41 0 65 12.5t35 27.5z
" />
    </font>
</defs>
</svg>
